Мультипликация

10 друзей Кролика [01-14] (2016) WEBRip-AVC

Информация о фильме
Название: 10 друзей Кролика
Год выхода: 2016
Жанр: мультфильм
Режиссер: Мария Шумилина, Сергей Братерский, Андрей Свислоцкий, …
В ролях: Никита Прозоровский, Ольга Зверева, Ольга Кузнецова, Анна Штукатурова, Анастасия Лапина, Екатерина Мирошникова, Вероника Саркисова, Ольга Голованова, Наталья Грачёва, Наталья Ромашенко

О фильме:
Они живут в мире, где нет людей, есть только животные. Приехавшие из разных уголков нашей замечательной планеты они быстро находят общий язык друг с другом и становятся настоящими друзьями. Каждый из них имеет увлечение или хобби. Например, заяц -спортсмен, занимается паркуром, кенгуру-садовник, крокодил и лиса — изобретатели и механики. Каждый их день насыщен приключениями, открытиями, развлечениями и весельем.

Страна: Россия
Студия: AA Studio
Продолжительность: ~ 00:05:00 серия
Перевод: Не требуется

Файл
Кодек: AVC / AAC
Качество: WEBRip-AVC
Видео: MPEG-4 AVC, ~ 496 Кбит/с, 640×360
Звук: AAC, 2 ch, ~ 96 Кбит/с

Скриншоты

Screenshots

MediaInfo
General
Complete name : 1 серия Обида.Piupiu123.mp4
Format : MPEG-4
Format profile : Base Media / Version 2
Codec ID : mp42
File size : 23.8 MiB
Duration : 5mn 24s
Overall bit rate mode : Variable
Overall bit rate : 617 Kbps
Movie name : 10 друзей кролика 1 серия Обида
Encoded date : UTC 2016-08-04 07:45:30
Tagged date : UTC 2016-08-04 07:45:30
Cover : Yes
gsst : 0
gstd : 324126

Video
ID : 1
Format : AVC
Format/Info : Advanced Video Codec
Format profile : [email protected]
Format settings, CABAC : No
Format settings, ReFrames : 1 frame
Codec ID : avc1
Codec ID/Info : Advanced Video Coding
Duration : 5mn 24s
Bit rate : 516 Kbps
Maximum bit rate : 1 696 Kbps
Width : 640 pixels
Height : 360 pixels
Display aspect ratio : 16:9
Frame rate mode : Variable
Frame rate : 24.870 fps
Minimum frame rate : 8.333 fps
Maximum frame rate : 25.000 fps
Color space : YUV
Chroma subsampling : 4:2:0
Bit depth : 8 bits
Scan type : Progressive
Bits/(Pixel*Frame) : 0.090
Stream size : 19.9 MiB (84%)
Tagged date : UTC 2016-08-04 07:45:31

Audio
ID : 2
Format : AAC
Format/Info : Advanced Audio Codec
Format profile : LC
Codec ID : 40
Duration : 5mn 24s
Bit rate mode : Variable
Bit rate : 96.0 Kbps
Maximum bit rate : 103 Kbps
Channel(s) : 2 channels
Channel positions : Front: L R
Sampling rate : 44.1 KHz
Compression mode : Lossy
Stream size : 3.71 MiB (16%)
Title : IsoMedia File Produced by Google, 5-11-2011
Encoded date : UTC 2016-08-04 07:45:30
Tagged date : UTC 2016-08-04 07:45:31


Скачать kroleg.torrent

просмотры: 2

Post Comment