Зарубежные фильмы Комедия

В последний раз / The Last Time (2006) DVDRip | P


Название: В последний раз
Оригинальное название: The Last Time

Год выхода: 2006
Страна: США

Студия: Element Films, Train A Comin' Productions Inc.
Продолжительность: 01:32:43
Жанр: триллер, драма, комедия, …

Режиссер: Майкл Калео

В ролях: Майкл Китон, Брендан Фрейзер, Эмбер Валлетта, Джордж Антон, Barbara Balentine, Аллен Бадрикс, Феликс Дж. Бойл, Кристи Шалэр, Томас Кроуфорд, Алексис Крус, …

Перевод: Профессиональный (многоголосный, закадровый) DVD "Парадиз"

О фильме: Преуспевающий бизнесмен Тед берёт в помощники молодого клерка Джейми, приехавшего в Нью-Йорк в поисках лучшей жизни, и вскоре страстно влюбляется в его невесту Белису. Под влиянием нахлынувшего на него чувства циничный и прагматичный деляга становится мягким и доверчивым и постепенно теряет жизненную хватку, которая всегда способствовала его успеху в бизнесе. Ведь любовь, быть может, загорелась в его судьбе в последний раз…

Кодек: x264
Качество: DVDRip-AVC
Видео: 1024×436, 3500 kbps, 25 fps
Аудио #1: AC-3, 6 ch, 448 kbps (Rus) — MVO
Аудио #2: AC-3, 6 ch, 448 kbps (Eng)
Субтитры: Русские, Английские

Дополнительная информация
За исходник спасибо — Speeder

MediaInfo

x264 [info]: frame I:1047 Avg QP:13.84 size: 70364
x264 [info]: frame P:25899 Avg QP:16.16 size: 33175
x264 [info]: frame B:112146 Avg QP:17.95 size: 13382
x264 [info]: consecutive B-frames: 1.3% 1.5% 5.2% 9.7% 14.1% 45.8% 9.5% 3.6% 3.6% 1.8% 1.0% 2.3% 0.7%

Общее
Уникальный идентификатор : 196028746182327317813413955243581575523 (0x9379C3629A8B7EFCA24B09752A4B1163)
Полное имя : В последний раз (The Last Time) 2006 DVDRip.mkv
Формат : Matroska
Версия формата : Version 2
Размер файла : 2,85 Гбайт
Продолжительность : 1 ч. 32 м.
Общий поток : 4398 Кбит/сек
Дата кодирования : UTC 2016-08-05 11:52:15
Программа кодирования : mkvmerge v4.0.0 ('The Stars were mine') сборка от Jun 6 2010 16:18:42
Библиотека кодирования : libebml v1.0.0 + libmatroska v1.0.0

Видео
Идентификатор : 1
Формат : AVC
Формат/Информация : Advanced Video Codec
Профиль формата : [email protected]
Параметр CABAC формата : Да
Параметр ReFrames формата : 12 кадров
Идентификатор кодека : V_MPEG4/ISO/AVC
Продолжительность : 1 ч. 32 м.
Битрейт : 3500 Кбит/сек
Ширина : 1024 пикселя
Высота : 436 пикселей
Соотношение сторон : 2,35:1
Режим частоты кадров : Постоянный
Частота кадров : 25,000 кадров/сек
Цветовое пространство : YUV
Субдискретизация насыщенности : 4:2:0
Битовая глубина : 8 бит
Тип развёртки : Прогрессивная
Бит/(Пиксели*Кадры) : 0.314
Размер потока : 2,21 Гбайт (78%)
Библиотека кодирования : x264 core 146 r2538 121396c
Настройки программы : cabac=1 / ref=12 / deblock=1:-3:-3 / analyse=0x3:0x133 / me=umh / subme=11 / psy=1 / psy_rd=1.00:0.00 / mixed_ref=1 / me_range=32 / chroma_me=1 / trellis=2 / 8x8dct=1 / cqm=0 / deadzone=21,11 / fast_pskip=0 / chroma_qp_offset=-2 / threads=12 / lookahead_threads=2 / sliced_threads=0 / nr=0 / decimate=0 / interlaced=0 / bluray_compat=0 / constrained_intra=0 / bframes=12 / b_pyramid=2 / b_adapt=2 / b_bias=0 / direct=3 / weightb=1 / open_gop=0 / weightp=2 / keyint=250 / keyint_min=25 / scenecut=40 / intra_refresh=0 / rc=2pass / mbtree=0 / bitrate=3500 / ratetol=1.0 / qcomp=0.60 / qpmin=0 / qpmax=69 / qpstep=4 / cplxblur=20.0 / qblur=0.5 / ip_ratio=1.40 / pb_ratio=1.30 / aq=1:0.80
Язык : English
Default : Нет
Forced : Нет

Аудио #1
Идентификатор : 2
Формат : AC-3
Формат/Информация : Audio Coding 3
Расширение режима : CM (complete main)
Параметр Endianness формата : Big
Идентификатор кодека : A_AC3
Продолжительность : 1 ч. 32 м.
Вид битрейта : Постоянный
Битрейт : 448 Кбит/сек
Каналы : 6 каналов
Расположение каналов : Front: L C R, Side: L R, LFE
Частота : 48,0 КГц
Частота кадров : 31,250 кадров/сек (1536 spf)
Метод сжатия : С потерями
Размер потока : 297 Мбайт (10%)
Заголовок : MVO
Язык : Russian
Default : Нет
Forced : Нет

Аудио #2
Идентификатор : 3
Формат : AC-3
Формат/Информация : Audio Coding 3
Расширение режима : CM (complete main)
Параметр Endianness формата : Big
Идентификатор кодека : A_AC3
Продолжительность : 1 ч. 32 м.
Вид битрейта : Постоянный
Битрейт : 448 Кбит/сек
Каналы : 6 каналов
Расположение каналов : Front: L C R, Side: L R, LFE
Частота : 48,0 КГц
Частота кадров : 31,250 кадров/сек (1536 spf)
Метод сжатия : С потерями
Размер потока : 297 Мбайт (10%)
Язык : English
Default : Нет
Forced : Нет

Текст #1
Идентификатор : 4
Формат : UTF-8
Идентификатор кодека : S_TEXT/UTF8
Идентификатор кодека/Информация : UTF-8 Plain Text
Язык : Russian
Default : Нет
Forced : Нет

Текст #2
Идентификатор : 5
Формат : UTF-8
Идентификатор кодека : S_TEXT/UTF8
Идентификатор кодека/Информация : UTF-8 Plain Text
Язык : English
Default : Нет
Forced : Нет



Скачать V_poslednij_raz_The_Last_Time_2006_DVDRip.mkv.torrent

просмотры: 4

Post Comment