Арт-хаус Зарубежные фильмы

В моей коже / Dans ma peau (2002) DVDRip-AVC | P

Информация о фильме
Название: В моей коже
Оригинальное название: Dans ma peau
Год выхода: 2002
Жанр: арт-хаус, ужасы, драма
Режиссер: Марина де Ван / Marina de Van
В ролях: Марина де Ван /Marina de Van/, Лоран Люка /Laurent Lucas/, Тибальт Де Монталемберт /Thibault de Montalembert/, Доминик Реймонд /Dominique Reymond/, Леа Дракер /Lea Drucker/

О фильме:
Эстер — симпатичная 30-летняя женщина, работает внештатно в пиаровской фирме. Она готова радикально изменить свою жизнь: она подумывает о переходе на штатную работу в компании и о том, чтобы поселиться вместе со своим парнем Венсаном.

Однажды ночью, прогуливаясь по темному саду, она упала и поранила ногу. Порез очень глубокий, но она не придает ему значения… однако через несколько дней с ее телом начинают происходить странные вещи…


Страна: Франция
Студия: Lazennec & Associés, Canal+, Centre National de la Cinématographie (CNC)
Продолжительность: 01:30:41.880
Перевод: Профессиональный (многоголосый, закадровый)

Файл
Кодек: h.264
Качество: DVDRip-AVC Исходник R5 DVD9
Видео: 712×544 (1.85:1) @ 1007×544, 25.000 fps, AVC, ~2336 Kbps, 0.241 bits/pixel
Звук:
Русский, 48.0 KHz, AC3, 6 ch, 448 Kbps
Французский, 48.0 KHz, AC3, 6 ch, 448 Kbps
Субтитры: Русские, VobSub

Предупреждение: Фильм не рекомендуется для просмотра людям с чувствительной психикой, слабонервным, детям и беременным!!!

MI
General
Unique ID : 170297319680668999624369239635466226857 (0x801E121C28FA8EF484945685DF158CA9)
Complete name : I:FilmsV_mojei_kozhe.2002.DVDRip-AVC.mkv
Format : Matroska
Format version : Version 4 / Version 2
File size : 2.05 GiB
Duration : 1h 30mn
Overall bit rate : 3 235 Kbps
Encoded date : UTC 2015-12-14 05:11:59
Writing application : mkvmerge v8.6.1 ('Flying') 64bit
Writing library : libebml v1.3.3 + libmatroska v1.4.4
DURATION : 01:27:01.070000000
NUMBER_OF_FRAMES : 690
NUMBER_OF_BYTES : 1077374
_STATISTICS_WRITING_APP : mkvmerge v8.6.1 ('Flying') 64bit
_STATISTICS_WRITING_DATE_UTC : 2015-12-14 05:11:59
_STATISTICS_TAGS : BPS DURATION NUMBER_OF_FRAMES NUMBER_OF_BYTES

Video
ID : 1
Format : AVC
Format/Info : Advanced Video Codec
Format profile : [email protected]
Format settings, CABAC : Yes
Format settings, ReFrames : 11 frames
Codec ID : V_MPEG4/ISO/AVC
Duration : 1h 30mn
Bit rate : 2 336 Kbps
Width : 712 pixels
Height : 544 pixels
Display aspect ratio : 1.85:1
Frame rate mode : Constant
Frame rate : 25.000 fps
Color space : YUV
Chroma subsampling : 4:2:0
Bit depth : 8 bits
Scan type : Progressive
Bits/(Pixel*Frame) : 0.241
Stream size : 1.44 GiB (70%)
Writing library : x264 core 148 r2638 7599210
Encoding settings : cabac=1 / ref=11 / deblock=1:0:0 / analyse=0x3:0x133 / me=umh / subme=11 / psy=1 / psy_rd=1.10:0.15 / mixed_ref=1 / me_range=48 / chroma_me=1 / trellis=2 / 8x8dct=1 / cqm=0 / deadzone=21,11 / fast_pskip=0 / chroma_qp_offset=-3 / threads=8 / lookahead_threads=2 / sliced_threads=0 / nr=0 / decimate=0 / interlaced=0 / bluray_compat=0 / constrained_intra=0 / bframes=10 / b_pyramid=2 / b_adapt=2 / b_bias=0 / direct=3 / weightb=1 / open_gop=0 / weightp=2 / keyint=250 / keyint_min=25 / scenecut=40 / intra_refresh=0 / rc_lookahead=60 / rc=2pass / mbtree=0 / bitrate=2336 / ratetol=1.0 / qcomp=0.60 / qpmin=0 / qpmax=69 / qpstep=4 / cplxblur=20.0 / qblur=0.5 / vbv_maxrate=40000 / vbv_bufsize=50000 / nal_hrd=none / filler=0 / ip_ratio=1.40 / pb_ratio=1.30 / aq=1:1.00
Default : No
Forced : No
Color range : Limited
Matrix coefficients : BT.601

Audio #1
ID : 2
Format : AC-3
Format/Info : Audio Coding 3
Mode extension : CM (complete main)
Format settings, Endianness : Big
Codec ID : A_AC3
Duration : 1h 30mn
Bit rate mode : Constant
Bit rate : 448 Kbps
Channel(s) : 6 channels
Channel positions : Front: L C R, Side: L R, LFE
Sampling rate : 48.0 KHz
Compression mode : Lossy
Stream size : 291 MiB (14%)
Language : Russian
Default : Yes
Forced : No

Audio #2
ID : 3
Format : AC-3
Format/Info : Audio Coding 3
Mode extension : CM (complete main)
Format settings, Endianness : Big
Codec ID : A_AC3
Duration : 1h 30mn
Bit rate mode : Constant
Bit rate : 448 Kbps
Channel(s) : 6 channels
Channel positions : Front: L C R, Side: L R, LFE
Sampling rate : 48.0 KHz
Compression mode : Lossy
Stream size : 291 MiB (14%)
Language : French
Default : No
Forced : No

Text
ID : 4
Format : VobSub
Muxing mode : zlib
Codec ID : S_VOBSUB
Codec ID/Info : Picture based subtitle format used on DVDs
Language : Russian
Default : No
Forced : No

Menu
00:00:00.000 : en:Chapter 01
00:09:35.280 : en:Chapter 02
00:15:01.040 : en:Chapter 03
00:18:54.000 : en:Chapter 04
00:24:22.480 : en:Chapter 05
00:30:58.640 : en:Chapter 06
00:34:50.480 : en:Chapter 07
00:37:56.400 : en:Chapter 08
00:40:00.080 : en:Chapter 09
00:41:38.000 : en:Chapter 10
00:49:56.400 : en:Chapter 11
00:58:26.960 : en:Chapter 12
01:05:00.720 : en:Chapter 13
01:09:46.640 : en:Chapter 14
01:18:36.560 : en:Chapter 15

X264 log 2nd pass
frame I:746 Avg QP:16.55 size: 49203
frame P:23464 Avg QP:19.29 size: 22326
frame B:111837 Avg QP:20.85 size: 9190

Скриншоты

Релиз от: Temperest


Скачать V_mojei_kozhe.2002.DVDRip-AVC.mkv.torrent

просмотры: 5

Post Comment