Зарубежные фильмы Исторический

Унесенные ветром / Gone with the Wind (1939) BDRip-AVC | D, P, A

Производство: США / Metro-Goldwyn-Mayer, Selznick International Pictures
Жанр: Драма, Мелодрама, Военный

Режиссер: Виктор Флеминг, Джордж Кьюкор, Сэм Вуд
Актеры: Вивьен Ли, Кларк Гейбл, Лесли Говард, Оливия Де Хэвилленд, Оскар Полк, Хэтти МакДэниел, Эверетт Браун, Томас Митчелл, Барбара О’Нил, Эвелин Кийес, Энн Разерфорд, Джордж Ривз, Фред Крэйн, Баттерфлай МакКуин, Виктор Джори, Ховард С. Хикман, Алисия Ретт, Рэнд Брукс, Кэрролл Най, Лаура Хоуп Крюс, Изабель Джуэлл, Гарри Девенпорт, Леона Робертс, Джейн Дарвелл, Она Мансон, Пол Херст, Кэмми Кинг

Описание: Могучие ветры Гражданской войны в один миг уносят беззаботную юность южанки Скарлетт О`Хара, когда привычный шум балов сменяется грохотом канонад на подступах к родному дому. Для молодой женщины, вынужденной бороться за новую жизнь на разоренной земле, испытания и лишения становятся шансом переосмыслить идеалы, обрести веру в себя и найти настоящую любовь.

Продолжительность: 03:53:14
Качество видео: BDRip-AVC
Перевод: Дублированный x2, профессиональный (многоголосый закадровый) x4, авторский (одноголосый закадровый) x7, любительский (одноголосый закадровый)
Вид субтитров: Вшитые, отключаемые
Язык субтитров: Русский, Английский

Видео: MPEG-4 AVC/H.264, 2664 Kbps, 790×576
Аудио 01: Русский AC3 2.0, 192 Kbps, 48.0 KHz (Дублированный) Союзмультфильм
Аудио 02: Русский AC3 5.1, 384 Kbps, 48.0 KHz (Дублированный) Blu-ray CEE
Аудио 03: Русский AC3 5.1, 384 Kbps, 48.0 KHz (Многоголосый закадровый) R5
Аудио 04: Русский AC3 5.1, 384 Kbps, 48.0 KHz (Многоголосый закадровый) DVDMagic 1
Аудио 05: Русский AC3 5.1, 384 Kbps, 48.0 KHz (Многоголосый закадровый) DVDMagic 2
Аудио 06: Русский AC3 2.0, 192 Kbps, 48.0 KHz (Многоголосый закадровый) Варус Видео
Аудио 07: Русский AC3 2.0, 192 Kbps, 48.0 KHz (Одноголосый закадровый) А. Михалёв 1
Аудио 08: Русский AC3 2.0, 192 Kbps, 48.0 KHz (Одноголосый закадровый) А. Михалёв 2
Аудио 09: Русский AC3 2.0, 192 Kbps, 48.0 KHz (Одноголосый закадровый) А. Гаврилов
Аудио 10: Русский AC3 2.0, 192 Kbps, 48.0 KHz (Одноголосый закадровый) В. Горчаков
Аудио 11: Русский AC3 2.0, 192 Kbps, 48.0 KHz (Одноголосый закадровый) В. Сонькин
Аудио 12: Русский AC3 5.1, 384 Kbps, 48.0 KHz (Одноголосый закадровый) Ю. Живов
Аудио 13: Русский AC3 5.1, 384 Kbps, 48.0 KHz (Одноголосый закадровый) М. Иванов
Аудио 14: Русский AC3 5.1, 384 Kbps, 48.0 KHz (Одноголосый закадровый) Карпов
Аудио 15: Английский AC3 5.1, 384 Kbps, 48.0 KHz (Оригинал)

MediaInfo

Общее
Полное имя : Унесенные ветром.mkv
Формат : Matroska
Версия формата : Version 1
Размер файла : 11,8 Гбайт
Продолжительность : 3 ч. 53 м.
Общий поток : 7224 Кбит/сек
Дата кодирования : UTC 2016-01-02 04:44:58
Программа кодирования : mkvmerge v2.4.1 ('Use Me') built on Dec 5 2008 18:30:05
Библиотека кодирования : libebml v0.7.7 + libmatroska v0.8.1

Видео
Идентификатор : 1
Формат : AVC
Формат/Информация : Advanced Video Codec
Профиль формата : [email protected]
Параметр CABAC формата : Да
Параметр ReFrames формата : 10 кадров
Идентификатор кодека : V_MPEG4/ISO/AVC
Продолжительность : 3 ч. 53 м.
Битрейт : 2664 Кбит/сек
Номинальный битрейт : 2800 Кбит/сек
Ширина : 790 пикселей
Высота : 576 пикселей
Соотношение сторон : 1,372
Режим частоты кадров : Постоянный
Частота кадров : 23,976 (24000/1001) кадра/сек
Цветовое пространство : YUV
Субдискретизация насыщенности : 4:2:0
Битовая глубина : 8 бит
Тип развёртки : Прогрессивная
Бит/(Пиксели*Кадры) : 0.244
Размер потока : 4,34 Гбайт (37%)
Заголовок : Унесенные ветром (1939)
Библиотека кодирования : x264 core 148 r2638 7599210
Настройки программы : cabac=1 / ref=10 / deblock=1:-3:-3 / analyse=0x3:0x133 / me=umh / subme=10 / psy=1 / psy_rd=1.00:0.10 / mixed_ref=1 / me_range=48 / chroma_me=1 / trellis=2 / 8x8dct=1 / cqm=0 / deadzone=21,11 / fast_pskip=0 / chroma_qp_offset=-3 / threads=6 / lookahead_threads=1 / sliced_threads=0 / nr=0 / decimate=1 / interlaced=0 / bluray_compat=0 / constrained_intra=0 / bframes=5 / b_pyramid=2 / b_adapt=2 / b_bias=0 / direct=3 / weightb=1 / open_gop=0 / weightp=2 / keyint=240 / keyint_min=22 / scenecut=40 / intra_refresh=0 / rc_lookahead=40 / rc=2pass / mbtree=1 / bitrate=2800 / ratetol=1.0 / qcomp=0.60 / qpmin=10 / qpmax=51 / qpstep=4 / cplxblur=20.0 / qblur=0.5 / ip_ratio=1.40 / aq=1:1.00
Язык : English
Default : Да
Forced : Нет

Аудио #1
Идентификатор : 2
Формат : AC-3
Формат/Информация : Audio Coding 3
Расширение режима : CM (complete main)
Параметр Endianness формата : Big
Идентификатор кодека : A_AC3
Продолжительность : 3 ч. 53 м.
Вид битрейта : Постоянный
Битрейт : 192 Кбит/сек
Каналы : 2 канала
Расположение каналов : Front: L R
Частота : 48,0 КГц
Частота кадров : 31,250 кадров/сек (1536 spf)
Метод сжатия : С потерями
Размер потока : 320 Мбайт (3%)
Заголовок : AC3 (Дублированный) Союзмультфильм
Язык : Russian
Default : Да
Forced : Нет

Аудио #2
Идентификатор : 3
Формат : AC-3
Формат/Информация : Audio Coding 3
Расширение режима : CM (complete main)
Параметр Endianness формата : Big
Идентификатор кодека : A_AC3
Продолжительность : 3 ч. 53 м.
Вид битрейта : Постоянный
Битрейт : 384 Кбит/сек
Каналы : 6 каналов
Расположение каналов : Front: L C R, Side: L R, LFE
Частота : 48,0 КГц
Частота кадров : 31,250 кадров/сек (1536 spf)
Метод сжатия : С потерями
Размер потока : 641 Мбайт (5%)
Заголовок : AC3 (Дублированный) Blu-ray CEE
Язык : Russian
Default : Нет
Forced : Нет

Аудио #3
Идентификатор : 4
Формат : AC-3
Формат/Информация : Audio Coding 3
Расширение режима : CM (complete main)
Параметр Endianness формата : Big
Идентификатор кодека : A_AC3
Продолжительность : 3 ч. 53 м.
Вид битрейта : Постоянный
Битрейт : 384 Кбит/сек
Каналы : 6 каналов
Расположение каналов : Front: L C R, Side: L R, LFE
Частота : 48,0 КГц
Частота кадров : 31,250 кадров/сек (1536 spf)
Метод сжатия : С потерями
Размер потока : 641 Мбайт (5%)
Заголовок : AC3 (Многоголосый) R5
Язык : Russian
Default : Нет
Forced : Нет

Аудио #4
Идентификатор : 5
Формат : AC-3
Формат/Информация : Audio Coding 3
Расширение режима : CM (complete main)
Параметр Endianness формата : Big
Идентификатор кодека : A_AC3
Продолжительность : 3 ч. 53 м.
Вид битрейта : Постоянный
Битрейт : 384 Кбит/сек
Каналы : 6 каналов
Расположение каналов : Front: L C R, Side: L R, LFE
Частота : 48,0 КГц
Частота кадров : 31,250 кадров/сек (1536 spf)
Метод сжатия : С потерями
Размер потока : 641 Мбайт (5%)
Заголовок : AC3 (Многоголосый) DVDMagic 1
Язык : Russian
Default : Нет
Forced : Нет

Аудио #5
Идентификатор : 6
Формат : AC-3
Формат/Информация : Audio Coding 3
Расширение режима : CM (complete main)
Параметр Endianness формата : Big
Идентификатор кодека : A_AC3
Продолжительность : 3 ч. 53 м.
Вид битрейта : Постоянный
Битрейт : 384 Кбит/сек
Каналы : 6 каналов
Расположение каналов : Front: L C R, Side: L R, LFE
Частота : 48,0 КГц
Частота кадров : 31,250 кадров/сек (1536 spf)
Метод сжатия : С потерями
Размер потока : 641 Мбайт (5%)
Заголовок : AC3 (Многоголосый) DVDMagic 2
Язык : Russian
Default : Нет
Forced : Нет

Аудио #6
Идентификатор : 7
Формат : AC-3
Формат/Информация : Audio Coding 3
Расширение режима : CM (complete main)
Параметр Endianness формата : Big
Идентификатор кодека : A_AC3
Продолжительность : 3 ч. 53 м.
Вид битрейта : Постоянный
Битрейт : 192 Кбит/сек
Каналы : 2 канала
Расположение каналов : Front: L R
Частота : 48,0 КГц
Частота кадров : 31,250 кадров/сек (1536 spf)
Метод сжатия : С потерями
Размер потока : 320 Мбайт (3%)
Заголовок : AC3 (Многоголосый) Варус Видео
Язык : Russian
Default : Нет
Forced : Нет

Аудио #7
Идентификатор : 8
Формат : AC-3
Формат/Информация : Audio Coding 3
Расширение режима : CM (complete main)
Параметр Endianness формата : Big
Идентификатор кодека : A_AC3
Продолжительность : 3 ч. 53 м.
Вид битрейта : Постоянный
Битрейт : 192 Кбит/сек
Каналы : 2 канала
Расположение каналов : Front: L R
Частота : 48,0 КГц
Частота кадров : 31,250 кадров/сек (1536 spf)
Метод сжатия : С потерями
Размер потока : 320 Мбайт (3%)
Заголовок : AC3 (Одноголосый) А. Михалёв 1
Язык : Russian
Default : Нет
Forced : Нет

Аудио #8
Идентификатор : 9
Формат : AC-3
Формат/Информация : Audio Coding 3
Расширение режима : CM (complete main)
Параметр Endianness формата : Big
Идентификатор кодека : A_AC3
Продолжительность : 3 ч. 53 м.
Вид битрейта : Постоянный
Битрейт : 192 Кбит/сек
Каналы : 2 канала
Расположение каналов : Front: L R
Частота : 48,0 КГц
Частота кадров : 31,250 кадров/сек (1536 spf)
Метод сжатия : С потерями
Размер потока : 320 Мбайт (3%)
Заголовок : AC3 (Одноголосый) А. Михалёв 2
Язык : Russian
Default : Нет
Forced : Нет

Аудио #9
Идентификатор : 10
Формат : AC-3
Формат/Информация : Audio Coding 3
Расширение режима : CM (complete main)
Параметр Endianness формата : Big
Идентификатор кодека : A_AC3
Продолжительность : 3 ч. 53 м.
Вид битрейта : Постоянный
Битрейт : 192 Кбит/сек
Каналы : 2 канала
Расположение каналов : Front: L R
Частота : 48,0 КГц
Частота кадров : 31,250 кадров/сек (1536 spf)
Метод сжатия : С потерями
Размер потока : 320 Мбайт (3%)
Заголовок : AC3 (Одноголосый) А. Гаврилов
Язык : Russian
Default : Нет
Forced : Нет

Аудио #10
Идентификатор : 11
Формат : AC-3
Формат/Информация : Audio Coding 3
Расширение режима : CM (complete main)
Параметр Endianness формата : Big
Идентификатор кодека : A_AC3
Продолжительность : 3 ч. 53 м.
Вид битрейта : Постоянный
Битрейт : 192 Кбит/сек
Каналы : 2 канала
Расположение каналов : Front: L R
Частота : 48,0 КГц
Частота кадров : 31,250 кадров/сек (1536 spf)
Метод сжатия : С потерями
Размер потока : 320 Мбайт (3%)
Заголовок : AC3 (Одноголосый) В. Горчаков
Язык : Russian
Default : Нет
Forced : Нет

Аудио #11
Идентификатор : 12
Формат : AC-3
Формат/Информация : Audio Coding 3
Расширение режима : CM (complete main)
Параметр Endianness формата : Big
Идентификатор кодека : A_AC3
Продолжительность : 3 ч. 53 м.
Вид битрейта : Постоянный
Битрейт : 192 Кбит/сек
Каналы : 2 канала
Расположение каналов : Front: L R
Частота : 48,0 КГц
Частота кадров : 31,250 кадров/сек (1536 spf)
Метод сжатия : С потерями
Размер потока : 320 Мбайт (3%)
Заголовок : AC3 (Одноголосый) В. Сонькин
Язык : Russian
Default : Нет
Forced : Нет

Аудио #12
Идентификатор : 13
Формат : AC-3
Формат/Информация : Audio Coding 3
Расширение режима : CM (complete main)
Параметр Endianness формата : Big
Идентификатор кодека : A_AC3
Продолжительность : 3 ч. 53 м.
Вид битрейта : Постоянный
Битрейт : 384 Кбит/сек
Каналы : 6 каналов
Расположение каналов : Front: L C R, Side: L R, LFE
Частота : 48,0 КГц
Частота кадров : 31,250 кадров/сек (1536 spf)
Метод сжатия : С потерями
Размер потока : 641 Мбайт (5%)
Заголовок : AC3 (Одноголосый) Ю. Живов
Язык : Russian
Default : Нет
Forced : Нет

Аудио #13
Идентификатор : 14
Формат : AC-3
Формат/Информация : Audio Coding 3
Расширение режима : CM (complete main)
Параметр Endianness формата : Big
Идентификатор кодека : A_AC3
Продолжительность : 3 ч. 53 м.
Вид битрейта : Постоянный
Битрейт : 384 Кбит/сек
Каналы : 6 каналов
Расположение каналов : Front: L C R, Side: L R, LFE
Частота : 48,0 КГц
Частота кадров : 31,250 кадров/сек (1536 spf)
Метод сжатия : С потерями
Размер потока : 641 Мбайт (5%)
Заголовок : AC3 (Одноголосый) М. Иванов
Язык : Russian
Default : Нет
Forced : Нет

Аудио #14
Идентификатор : 15
Формат : AC-3
Формат/Информация : Audio Coding 3
Расширение режима : CM (complete main)
Параметр Endianness формата : Big
Идентификатор кодека : A_AC3
Продолжительность : 3 ч. 53 м.
Вид битрейта : Постоянный
Битрейт : 384 Кбит/сек
Каналы : 6 каналов
Расположение каналов : Front: L C R, Side: L R, LFE
Частота : 48,0 КГц
Частота кадров : 31,250 кадров/сек (1536 spf)
Метод сжатия : С потерями
Размер потока : 641 Мбайт (5%)
Заголовок : AC3 (Одноголосый) Карпов
Язык : Russian
Default : Нет
Forced : Нет

Аудио #15
Идентификатор : 16
Формат : AC-3
Формат/Информация : Audio Coding 3
Расширение режима : CM (complete main)
Параметр Endianness формата : Big
Идентификатор кодека : A_AC3
Продолжительность : 3 ч. 53 м.
Вид битрейта : Постоянный
Битрейт : 384 Кбит/сек
Каналы : 6 каналов
Расположение каналов : Front: L C R, Side: L R, LFE
Частота : 48,0 КГц
Частота кадров : 31,250 кадров/сек (1536 spf)
Метод сжатия : С потерями
Размер потока : 641 Мбайт (5%)
Заголовок : AC3 (Оригинал)
Язык : English
Default : Нет
Forced : Нет

Текст #1
Идентификатор : 17
Формат : UTF-8
Идентификатор кодека : S_TEXT/UTF8
Идентификатор кодека/Информация : UTF-8 Plain Text
Заголовок : Русские
Язык : Russian
Default : Нет
Forced : Нет

Текст #2
Идентификатор : 18
Формат : UTF-8
Идентификатор кодека : S_TEXT/UTF8
Идентификатор кодека/Информация : UTF-8 Plain Text
Заголовок : Английские
Язык : English
Default : Нет
Forced : Нет[/code]

Дополнительная информация

» Фильм снят по мотивам романа Маргарет Митчелл «Унесенные ветром» (Gone with the Wind, 1936).
» Несмотря на то, что цвет в кинематографе утвердился гораздо позже (приблизительно в 1960-ые годы), «Унесённые ветром» является полностью цветным фильмом, он был снят при помощи системы «Текниколора», при которой черно-белые снимки окрашивались в красный и зелёный цвета и скреплялись в единую ленту, что позволяло получить нужную цветовую гамму; этот метод был дорогостоящим, так как не только потреблял большое количество плёнки, но и нуждался в специально переделанной кинокамере.
» Первоначально в сцене, когда Скарлетт идет по полю битвы между телами убитых и раненых южан, планировалось использовать 2000 статистов. Но Гильдия актеров потребовала заплатить всем им по средней ставке, на что Селзник отказался. В сцене были задействованы 800 оплаченных статистов и 400 добровольцев, снимавшихся бесплатно.
» Опубликованный в 1936 году, роман был продан уже в первый день в количестве более чем 50 тысяч копий. В свой первый год роман получил Пулитцеровскую премию и был переиздан 31 раз.
» В качестве аванса за будущую книгу Маргарет Митчелл получила 500 долларов, а на авторских процентах заработала в первый год 3 млн. долларов (что соотвествует 33 млн. современных долларов).
» Издательство «Macmillan Publishers» собиралось печатать роман с названием «Завтра будет другой день» / Tomorrow Is Another Day, но Митчелл предложила на выбор несколько альтернативных заголовков, среди которых и оказались «Унесенные ветром». Эту фразу она обнаружила в поэме Эрнеста Доусона «Cynara».
» Сначала Митчелл написала последнюю главу. Затем она стала нанизывать главы одну за другой на сюжетный стержень, как нанизывают куски шашлыка на шампур. К странностям писательницы отнесем и то обстоятельство, что многие главы она прятала на недельку — другую под мебелью в доме и лишь затем доставала их, перечитывала и вносила коррективы.
» Продюсер Дэвид О. Селзник заплатил смехотворные 50 тысяч долларов за право экранизации романа.
» Среди других кандидатов на роль Батлера рассматривались такие звезды 30-х годов как Рональд Колман, Гэри Купер, Фредрик Марч, Бэзил Рэтбоун и Эррол Флинн.
» Поиск актрисы на роль Скарлетт О`Хара велся еще интенсивнее. Всего было рассмотрено 1400 кандидаток.
» Главной претенденткой на роль считалась Бетт Дэвис, но звезда была связана многолетним контрактом с «Warner Bros.». Джэк Варнер был согласен отпустить Дэвис, но при условии, что мужскую роль сыграет Эррол Флинн. Бэтт Дэвис отказалась, так как, по ее мнению, Флинн выглядит слишком женственно.
» Селзник начал съемки фильма, еще не имея актрисы на главную роль! Для съемок усадьбы был задействован особняк брата Селзника, Майрона, главы голливудской фирмы по подбору актеров. Именно Майрон и порекомендовал юную актрису Вивьен Ли. На роль чернокожей няньки-служанки претендовала… повариха президента США Франклина Рузвельта Лиззи МакДаффи, но выбор пал на Хэтти МакДэниел.
» Актриса Барбара О`Нил, сыгравшая мать Скарлетт Эллен, на самом деле была всего на три года старше актрисы Вивьен Ли.
» В написании отдельных сцен фильма участвовал известный писатель Скотт Фитцджеральд, имя которого так и не появилось в титрах картины.
» В последний день съемок 26 января 1939 года все еще не было готового сценария. Его дописывали прямо на съемочной площадке в моменты пауз.
» Сценарист фильма Сидни Ховард за месяц до премьеры погиб в результате несчастного случая на ферме. «Оскар» за лучший сценарий ему был вручен посмертно.
» Для фильма были сшиты 5500 оригинальных костюмов, включая и 1200 мундиров армии конфедератов-южан. Их стоимость составила всего 10000 долларов. Все мундиры прошли процесс старения: их терли о песок, использовали металлические щетки, пачкали в грязи.
» В фильме задействованы 59 актеров и 2400 человек массовки, 1100 лошадей, 375 других животных и 450 карет и подвод. Окончательная стоимость фильма составила 3,7 млн. долларов (41 млн. в современных долларах) плюс 550 тысяч долларов на рекламу, плакаты и специальные буклеты.
» Когда режиссер Джордж Кьюкор покинул из-за разногласий с продюсером съемочную площадку, Селзник быстро нашел ему замену в лице Виктора Флеминга.
» Лесли Говард, сыгравший в «Унесенных ветром» героя войны Эшли Уилкиса, являлся военным офицером запаса. Когда началась Вторая мировая война, он отправился добровольцем на фронт и погиб: его самолет был сбит.
» За некоторые не совсем цензурные выражения героев фильма Селзник был оштрафован на 5000 долларов, но он всегда считал, что заплатил эти деньги не зря.
» Сеансы проходили в кинотеатре Loew`s Grand Theatre на Грушевой улице и здание кино было декорировано как старинный особняк династии О`Хара, а над входом висела фотография Кларка Гейбла в обнимку с Вивьен Ли. Билеты на премьеру стоили 10 долларов, но спекулянты продавали их по цене 200 долларов (в нынешних суммах — 2000 долларов)…
» Почти миллион зрителей посмотрел фильм в Атланте. В ночь премьеры возле кинотеатра стояло до 300 тысяч человек, которые хотели лично поприветствовать создателей картины.
» Уступая мощному давлению Легиона Последователей Католической Церкви, цензоры дали «Унесенным ветром» право на демонстрацию лишь в ограниченном количестве кинотеатров и в ограниченное время за «низкие моральные устои главных персонажей, разлагающий пример деградации общества, сцены насилия и чрезмерной похотливости».
» В июле 1998 года легендарный фильм «Унесенные ветром» вышел в повторный общеамериканский кинопрокат.
» На роль Скарлетт была утверджена Полетт Годдар, но затем контракт с ней был расторгнут.
» В 1976 году, когда по американскому телевидению впервые показали «Унесённые ветром», аудитория, по подсчетам социологов, составила около 130 млн. зрителей.
» Вивьен Ли утвердили на роль совершенно случайно, после многочисленных проб других известных голливудских актрис; невероятно и то, что «американскую девушку» в конце концов сыграла англичанка. На роль пробовалось около 1400 актрис, из которых 400 пригласили на второе прослушивание.
Полный отреставрированный вариант фильма имеет хронометраж 238 минут.
Вивьен Ли работала в течение 125-ти дней и получила 25 000$, Кларк Гейбл работал в течение 71 дня и получил 120000$.
» Нравы в Америке 30-х годов были таковы, что никому из темнокожих актеров и актрис, снимавшихся в фильме, не было дозволено присутствовать на премьере.
» В фильме изначально вместо паровозов снимали макеты. Тогда 29 декабря 1938 года Уилберт Куртц, который был историческим консультантом фильма, написал письмо руководству дороги NC&StL Ry с просьбой предоставить для съёмок паровоз Генерал (англ. General — известный в США локомотив, прославившийся после одного инцидента во время Гражданской войны), который на тот момент хранился в Чаттануге. Однако 3 января 1939 года пришёл ответ, что локомотив уже подготовлен для отправки в Нью-Йорк на Всемирную выставку и будет недоступен в течение года. Тогда Куртц отправил новое письмо, с просьбой предоставить Генерала для съёмок на февраль-март, то есть до выставки. Ответ был положительным, но руководство дороги потребовало в этом случае оплатить доставку паровоза с тендером в Лос-Анджелес и обратно по стоимости 3$ за каждые сто фунтов веса. Однако в этом случае получалась значительная сумма (один только паровоз весил 50 300 фунтов), поэтому от идеи использования Генерала в фильме были вынуждены отказаться. В итоге в фильме нет ни одного настоящего паровоза, а лишь деревянные макеты.
» В пробах на роль Скарлетт участвовала жена Кларка Гейбла — актриса Кэрол Ломбард.
» Идею романа писательница почерпнула из собственной жизни. Во время своей учебы в колледже Смита она влюбилась в однокурсника, но счастью так и не было суждено сбыться: мужчина погиб на фронте в годы Первой мировой войны.
» Первой сценой, отснятой для фильма, была сцена побега Скарлетт и Ретта из пылающей Атланты, сцену снимали в естественных условиях — руководство студии подожгло целый «квартал» декораций, оставшихся от съемок другого фильма; на тот момент исполнительница роли Скарлетт ещё не была утверждена и её играла актриса, имя которой осталось неизвестным.
Скриншоты:

Скриншоты


Скачать Unesennyie_vetrom.mkv.torrent

просмотры: 7

Post Comment