Зарубежные фильмы Криминал

На гребне волны / Point Break (2015) DVD5 | D



Информация о фильме
Название: На гребне волны
Оригинальное название: Point Break
Год выхода: 2015
Жанр: боевик, триллер, криминал, спорт
Режиссер: Эриксон Кор
В ролях: Люк Брейси, Эдгар Рамирес, Рэй Уинстон, Тереза Палмер, Матиас Варела, Клеменс Шик, Тобиас Зантельман, Макс Тириот, Делрой Линдо, Николай Кински


О фильме:
Джонни — молодой агент ФБР, специализирующийся на работе под прикрытием. Он не раз выходил из самых сложных ситуаций, всегда доделывая свою работу до конца. Его очередным заданием становится проникновение в банду воров. Однако эти люди не обычные грабители: их главным отличием от остальных является увлечение экстремальными видами спорта. Свои умения они используют при каждом новом ограблении, и стать частью их команды очень непросто. Чтобы войти в банду и остановить преступников, Джонни придется доказать, что он такой же как они, а для этого ему не раз предстоит рискнуть собственной жизнью…



Страна: США, Германия, Китай
Студия: Alcon Entertainment, DMG Entertainment, Ehman Productions, Studio Babelsberg
Продолжительность: 110 мин. / 01:50
Перевод: полное дублирование


Файл
Кодек: MPEG2
Качество: DVD5 (сжатый)
Видео: PAL 16:9 (720×[email protected]×576) VBR 5185 Kbps, 25.000 fps
Аудио: Dolby AC3, 6 ch, 48.0 KHz, 384 Kbps (русский, английский)
Субтитры: русские, английские



Процесс изготовления диска
Исходник: На гребне волны / Point Break (2015) DVD9 от New-Team | Лицензия
Удалены: бонусы, предупреждающие надписи, описательная звуковая дорожка (в меню кнопки затерты). Команды диска переписаны заново, оставлен один VTS.
Видео сжато на 20.7%
Меню: статичное, недействующие кнопки затерты и закрыты.
Обработка и сжатие: DVD ReMake Pro + DVD Rebuilder + CCE SP2 [7 проходов] + Работа с меню (Adobe PhotoShop и MuxMan).

Автор релиза: J9-1000
MediaInfo
Общее
Полное имя : D:Point Break (2015) DVD5VIDEO_TSVTS_01_4.VOB
Формат : MPEG-PS
Размер файла : 1024 Мбайт
Продолжительность : 23 м.
Режим общего битрейта : Переменный
Общий поток : 6074 Кбит/сек

Видео
Идентификатор : 224 (0xE0)
Формат : MPEG Video
Версия формата : Version 2
Профиль формата : [email protected]
Параметр BVOP формата : Да
Параметр матрицы формата : Выборочная
Параметр GOP формата : Variable
Продолжительность : 23 м.
Вид битрейта : Переменный
Битрейт : 5185 Кбит/сек
Максимальный битрейт : 8170 Кбит/сек
Ширина : 720 пикселей
Высота : 576 пикселей
Соотношение сторон : 16:9
Частота кадров : 25,000 кадров/сек
Стандарт вещания : PAL
Цветовое пространство : YUV
Субдискретизация насыщенности : 4:2:0
Битовая глубина : 8 бит
Тип развёртки : Прогрессивная
Порядок развёртки : Верхнее поле первое
Метод сжатия : С потерями
Бит/(Пиксели*Кадры) : 0.500
Временной код первого кадра : 01:15:08:12
Оригинал временного кода : Group of pictures header
Размер потока : 874 Мбайт (85%)

Аудио #1
Идентификатор : 189 (0xBD)-128 (0x80)
Формат : AC-3
Формат/Информация : Audio Coding 3
Расширение режима : CM (complete main)
Параметр Endianness формата : Big
Режим смешивания : DVD-Video
Продолжительность : 23 м.
Вид битрейта : Постоянный
Битрейт : 384 Кбит/сек
Каналы : 6 каналов
Расположение каналов : Front: L C R, Side: L R, LFE
Частота : 48,0 КГц
Частота кадров : 31,250 кадров/сек (1536 spf)
Метод сжатия : С потерями
Задержка видео : -352 мс.
Размер потока : 64,7 Мбайт (6%)

Аудио #2
Идентификатор : 189 (0xBD)-130 (0x82)
Формат : AC-3
Формат/Информация : Audio Coding 3
Расширение режима : CM (complete main)
Параметр Endianness формата : Big
Режим смешивания : DVD-Video
Продолжительность : 23 м.
Вид битрейта : Постоянный
Битрейт : 384 Кбит/сек
Каналы : 6 каналов
Расположение каналов : Front: L C R, Side: L R, LFE
Частота : 48,0 КГц
Частота кадров : 31,250 кадров/сек (1536 spf)
Метод сжатия : С потерями
Задержка видео : -352 мс.
Размер потока : 64,7 Мбайт (6%)

Текст #1
Идентификатор : 189 (0xBD)-32 (0x20)
Формат : RLE
Формат/Информация : Run-length encoding
Режим смешивания : DVD-Video
Задержка видео : 3 с. 120 мс.

Текст #2
Идентификатор : 189 (0xBD)-33 (0x21)
Формат : RLE
Формат/Информация : Run-length encoding
Режим смешивания : DVD-Video
Задержка видео : 3 с. 320 мс.

Меню
Скриншоты


Скачать Point_Break_2015_DVD5.torrent

просмотры: 3

Post Comment