Детектив Зарубежные фильмы

Манхэттенская ночь / Manhattan Night (2016) BDRip 1080p от ExKinoRay | L

Информация о фильме
Название: Манхэттенская ночь
Оригинальное название: Manhattan Night
Год выхода: 2016
Жанр: триллер, драма, криминал, детектив
Режиссер: Брайан ДеКьюбелис
В ролях: Ивонн Страховски, Эдриан Броуди, Дженнифер Билз, Кэмпбелл Скотт, Стивен Беркофф, Линда Лавин, Кевин Брезнахан, Амели МакКендри, Томас Баир, Мэдисон Элизабет Лахарес

О фильме:
С просьбы соблазнительной незнакомки разобраться в нераскрытом убийстве ее мужа начинается неприятная история сексуальной одержимости и шантажа, которая может стоить журналисту Портеру Рену его работы, семьи и даже жизни.

Страна: США
Студия: DeCubellis Films, Untravelled Worlds, Fable House
Продолжительность: 01:54:26
Перевод: Любительский многоголосый (закадровый) | СПД

Файл
Кодек: x264
Качество: BDRip 1080p
Видео: 1920×802, 15.0 Mbit/s, 23.976 fps
Звук:
Аудио #01: 48 kHz, AC3, 5.1, 448 Kbps | Любительский многоголосый (закадровый) | СПД |
Аудио #02: 48 kHz, DTS, 5.1, 1510 kbps | Оригинал |
Субтитры: Английские

MI
General
Unique ID : 240778442379035848936935683291811278778 (0xB5243DC0348EC06B960247CB894DEFBA)
Complete name : G:VideoНовая папка (2)Manhattan.Night.2016.MVO.BDRip.1080p.ExKinoRay.mkv
Format : Matroska
Format version : Version 4 / Version 2
File size : 13.4 GiB
Duration : 1h 53mn
Overall bit rate : 16.9 Mbps
Movie name : Manhattan.Night.2016.MVO.BDRip.1080p.ExKinoRay
Encoded date : UTC 2016-07-24 17:01:42
Writing application : mkvmerge v8.3.0 ('Over the Horizon') 64bit
Writing library : libebml v1.3.1 + libmatroska v1.4.2

Video
ID : 1
Format : AVC
Format/Info : Advanced Video Codec
Format profile : [email protected]
Format settings, CABAC : Yes
Format settings, ReFrames : 5 frames
Codec ID : V_MPEG4/ISO/AVC
Duration : 1h 53mn
Bit rate : 15.0 Mbps
Width : 1 920 pixels
Height : 802 pixels
Display aspect ratio : 2.40:1
Frame rate mode : Constant
Frame rate : 23.976 (24000/1001) fps
Color space : YUV
Chroma subsampling : 4:2:0
Bit depth : 8 bits
Scan type : Progressive
Bits/(Pixel*Frame) : 0.406
Stream size : 11.9 GiB (88%)
Writing library : x264 core 142 r2431+42 c69a006 tMod [[email protected] X86]
Encoding settings : cabac=1 / ref=5 / deblock=1:0:0 / analyse=0x3:0x113 / me=umh / subme=10 / psy=1 / fade_compensate=0.00 / psy_rd=1.05:0.10 / mixed_ref=1 / me_range=48 / chroma_me=1 / trellis=2 / 8x8dct=1 / cqm=0 / deadzone=21,11 / fast_pskip=0 / chroma_qp_offset=-2 / threads=12 / lookahead_threads=1 / sliced_threads=0 / nr=0 / decimate=1 / interlaced=0 / bluray_compat=0 / constrained_intra=0 / fgo=0 / bframes=6 / b_pyramid=2 / b_adapt=2 / b_bias=0 / direct=3 / weightb=1 / open_gop=0 / weightp=2 / keyint=250 / keyint_min=23 / scenecut=40 / intra_refresh=0 / rc=2pass / mbtree=0 / bitrate=15000 / ratetol=2.0 / qcomp=0.70 / qpmin=0:0:0 / qpmax=69:69:69 / qpstep=4 / cplxblur=20.0 / qblur=0.5 / ip_ratio=1.40 / pb_ratio=1.30 / aq=2:1.00 / aq-sensitivity=10.00 / aq-factor=1.00:1.00:1.00 / aq2=0 / aq3=0
Language : English
Default : Yes
Forced : No

Audio #1
ID : 2
Format : AC-3
Format/Info : Audio Coding 3
Mode extension : CM (complete main)
Format settings, Endianness : Big
Codec ID : A_AC3
Duration : 1h 53mn
Bit rate mode : Constant
Bit rate : 448 Kbps
Channel(s) : 6 channels
Channel positions : Front: L C R, Side: L R, LFE
Sampling rate : 48.0 KHz
Frame rate : 31.250 fps (1536 spf)
Compression mode : Lossy
Stream size : 365 MiB (3%)
Title : MVO
Language : Russian
Default : Yes
Forced : No

Audio #2
ID : 3
Format : DTS
Format/Info : Digital Theater Systems
Mode : 16
Format settings, Endianness : Big
Codec ID : A_DTS
Duration : 1h 53mn
Bit rate mode : Constant
Bit rate : 1 509 Kbps
Channel(s) : 6 channels
Channel positions : Front: L C R, Side: L R, LFE
Sampling rate : 48.0 KHz
Frame rate : 93.750 fps (512 spf)
Bit depth : 24 bits
Compression mode : Lossy
Stream size : 1.20 GiB (9%)
Title : Original
Language : English
Default : No
Forced : No

Text #1
ID : 4
Format : UTF-8
Codec ID : S_TEXT/UTF8
Codec ID/Info : UTF-8 Plain Text
Duration : 1h 46mn
Bit rate : 56 bps
Count of elements : 1261
Stream size : 43.7 KiB (0%)
Title : Full
Language : English
Default : No
Forced : No

Text #2
ID : 5
Format : UTF-8
Codec ID : S_TEXT/UTF8
Codec ID/Info : UTF-8 Plain Text
Duration : 1h 52mn
Bit rate : 65 bps
Count of elements : 1522
Stream size : 54.1 KiB (0%)
Title : SDH
Language : English
Default : No
Forced : No

Menu
00:00:00.000 : en:00:00:00.000
00:09:27.150 : en:00:09:27.150
00:14:56.562 : en:00:14:56.562
00:25:48.714 : en:00:25:48.714
00:32:18.770 : en:00:32:18.770
00:39:42.672 : en:00:39:42.672
00:48:02.838 : en:00:48:02.838
00:59:05.208 : en:00:59:05.208
01:06:32.030 : en:01:06:32.030
01:11:48.471 : en:01:11:48.471
01:18:48.849 : en:01:18:48.849
01:25:02.389 : en:01:25:02.389
01:29:03.004 : en:01:29:03.004
01:31:47.836 : en:01:31:47.836
01:40:28.022 : en:01:40:28.022
01:46:12.408 : en:01:46:12.408
Скриншоты

Релиз от: Автор релиза:


Скачать Manhattan.Night.2016.MVO.BDRip.1080p.ExKinoRay..torrent

просмотры: 0

Post Comment