Зарубежные фильмы Исторический

Леди Гамильтон / Le calde notti di Lady Hamilton (1968) DVDRip-AVC | P2


Название: Леди Гамильтон
Оригинальное название: Le calde notti di Lady Hamilton
Год выхода: 1968
Страна: Италия, Германия (ФРГ), Франция, США
Студия: Peer Oppenheimer Production Inc., Produzioni Europee Associati (PEA), Rapid Film
Продолжительность: 01:37:58
Жанр: драма, мелодрама, история, …

Режиссер: Кристиан-Жак
В ролях: Мишель Мерсье, Ричард Джонсон, Джон Миллз, Харальд Лайпниц, Клаудио Ундани, Мирко Эллис, Lorenzo Terzon, Ховард Росс, Габриэлла Джорджелли, Гизела Улен, …

Перевод: Профессиональный (двуголосый, закадровый)

О фильме: Увлекательный фильм, история головокружительной жизненной карьеры простой английской крестьянской девушки от деревенской пастушки до жены лордa, снятый по мотивам романа Александра Дюма и историческим фактам о жизни знаменитой леди Гамильтон. Эмма будущая лeди Гамильтон, приезжает в Лондон, работать натурщицей у знаменитого художника Джоржа Ромни.
За время проживания в доме художника девушка обучается этикету и получает образование. Плоды просвещения не пропадают даром, девушка решает стать богатой и известной, ведь у нее есть такие преимущества как ее красота и незаурядный ум. Пройдя тернистый путь, героиня в итоге станет женой лорда Гамильтона и подругой-любовницей королевы Италии.
Но единственнойее любовью на всю жизнь остается героический адмирал лорд Нельсон, от которого она родит дочь…

Кодек: x264
Качество: DVDRip-AVC
Видео: 748×320 , 3000 kbps, 23,976 fps
Аудио #1: AC-3, 6 ch, 448 kbps (Rus) — DVO
Аудио #2: AC-3, 6 ch, 448 kbps (Eng)
Субтитры: нет

Дополнительная информация
За исходник спасибо — Igorek01

MediaInfo

x264 [info]: frame I:818 Avg QP:18.31 size: 43617
x264 [info]: frame P:27061 Avg QP:20.50 size: 25211
x264 [info]: frame B:113064 Avg QP:22.53 size: 13148
x264 [info]: consecutive B-frames: 1.1% 1.6% 5.0% 13.4% 12.1% 50.3% 7.9% 3.9% 2.7% 1.1% 0.3% 0.5% 0.2%

Общее
Уникальный идентификатор : 240815629954127316904822815637497649633 (0xB52B673D64464619B03AF65D124F19E1)
Полное имя : Леди Гамильтон (Le calde notti di Lady Hamilton) 1968 DVDRip.mkv
Формат : Matroska
Версия формата : Version 2
Размер файла : 2,67 Гбайт
Продолжительность : 1 ч. 37 м.
Общий поток : 3898 Кбит/сек
Дата кодирования : UTC 2016-05-16 07:14:31
Программа кодирования : mkvmerge v4.0.0 ('The Stars were mine') сборка от Jun 6 2010 16:18:42
Библиотека кодирования : libebml v1.0.0 + libmatroska v1.0.0

Видео
Идентификатор : 1
Формат : AVC
Формат/Информация : Advanced Video Codec
Профиль формата : [email protected]
Параметр CABAC формата : Да
Параметр ReFrames формата : 12 кадров
Идентификатор кодека : V_MPEG4/ISO/AVC
Продолжительность : 1 ч. 37 м.
Битрейт : 3000 Кбит/сек
Ширина : 748 пикселей
Высота : 320 пикселей
Соотношение сторон : 2,35:1
Соотношение сторон в оригинале : 2,35:1
Режим частоты кадров : Постоянный
Частота кадров : 23,976 кадра/сек
Цветовое пространство : YUV
Субдискретизация насыщенности : 4:2:0
Битовая глубина : 8 бит
Тип развёртки : Прогрессивная
Бит/(Пиксели*Кадры) : 0.523
Размер потока : 2,00 Гбайт (75%)
Библиотека кодирования : x264 core 146 r2538 121396c
Настройки программы : cabac=1 / ref=12 / deblock=1:-3:-3 / analyse=0x3:0x133 / me=umh / subme=11 / psy=1 / psy_rd=1.11:0.11 / mixed_ref=1 / me_range=32 / chroma_me=1 / trellis=2 / 8x8dct=1 / cqm=0 / deadzone=21,11 / fast_pskip=0 / chroma_qp_offset=-3 / threads=12 / lookahead_threads=2 / sliced_threads=0 / nr=0 / decimate=0 / interlaced=0 / bluray_compat=0 / constrained_intra=0 / bframes=12 / b_pyramid=2 / b_adapt=2 / b_bias=0 / direct=3 / weightb=1 / open_gop=0 / weightp=2 / keyint=240 / keyint_min=23 / scenecut=40 / intra_refresh=0 / rc=2pass / mbtree=0 / bitrate=3000 / ratetol=1.0 / qcomp=0.60 / qpmin=0 / qpmax=69 / qpstep=4 / cplxblur=20.0 / qblur=0.5 / ip_ratio=1.40 / pb_ratio=1.30 / aq=1:0.80
Язык : Italian
Default : Нет
Forced : Нет

Аудио #1
Идентификатор : 2
Формат : AC-3
Формат/Информация : Audio Coding 3
Расширение режима : CM (complete main)
Параметр Endianness формата : Big
Идентификатор кодека : A_AC3
Продолжительность : 1 ч. 37 м.
Вид битрейта : Постоянный
Битрейт : 448 Кбит/сек
Каналы : 6 каналов
Расположение каналов : Front: L C R, Side: L R, LFE
Частота : 48,0 КГц
Метод сжатия : С потерями
Размер потока : 314 Мбайт (11%)
Заголовок : DVO DVD
Язык : Russian
Default : Нет
Forced : Нет

Аудио #2
Идентификатор : 3
Формат : AC-3
Формат/Информация : Audio Coding 3
Расширение режима : CM (complete main)
Параметр Endianness формата : Big
Идентификатор кодека : A_AC3
Продолжительность : 1 ч. 37 м.
Вид битрейта : Постоянный
Битрейт : 448 Кбит/сек
Каналы : 6 каналов
Расположение каналов : Front: L C R, Side: L R, LFE
Частота : 48,0 КГц
Метод сжатия : С потерями
Размер потока : 314 Мбайт (11%)
Язык : French
Default : Нет
Forced : Нет



Скачать Ledi_Gamilton_Le_calde_notti_di_Lady_Hamilton_1.torrent

просмотры: 2

Post Comment