Вестерн Зарубежные фильмы

Выживший / The Revenant (2015) BDRip 720p от NNNB | D, A

Выживший / The Revenant

«До последней капли крови»


Русское название: Выживший
Оригинальное название: The Revenant
Год выпуска: 2015
Жанр: триллер, драма, приключения, вестерн
Выпущено: США, Гонконг, Тайвань, Канада
Режиссер: Алехандро Гонсалес Иньярриту
В ролях: Леонардо ДиКаприо , Том Харди , Донал Глисон , Уилл Поултер , Форрест Гудлак , Пол Андерсон , Кристоффер Йонер , Джошуа Бёрдж , Дуан Ховард , Мила Нахеко , Фабрис Адд , Arthur RedCloud
Перевод: Дублированный, Авторский одноголосый

Сюжет фильма:
Охотник Хью Гласс серьезно ранен на неизведанных просторах американского Дикого Запада. Товарищ Хью по отряду покорителей новых земель Джон Фицжеральд предательски оставляет его умирать в одиночестве. Теперь у Гласса осталось только одно оружие — его сила воли. Он готов бросить вызов первобытной природе, суровой зиме и враждебным племенам индейцев, только чтобы выжить и отомстить Фицжеральду.

Качество: BDRip 720p
Формат: AVC (библиотека кодирования x.264)
Контейнер (Расширение): MKV
Видео: 1280×536, 4859 Кбит/сек, 23,976 кадр/сек, 0,295 Бит/[Пиксели*Кадры]
Аудио №1: русский / AC3 / 5.1 / 48 kHz / 448 kbps / 16 bit |Дублированный|
Аудио №2: русский / AC3 / 5.1 / 48 kHz / 640 kbps / 16 bit |Авторский одноголосый, Ю.Сербин|
Аудио №3: русский / AC3 / 5.1 / 48 kHz / 640 kbps / 16 bit |Авторский одноголосый, Д.Есарев|
Аудио №4: английский / AC3 / 5.1 / 48 kHz / 640 kbps / 16 bit
Субтитры: русские (Forced), русские, русские (CoTranslate), русские (EgZvor, Polaris198), английские (Forced), английские, английские (SDH), английские (SDH-Colored)
Навигация по главам(Чаптеры): есть
Продолжительность: 02:36:55

Автор рипа: Сообщество:

MediaInfo

Format : Matroska
Format version : Version 2
File size : 7.90 GiB
Duration : 2h 36mn
Overall bit rate : 7 203 Kbps
Movie name : The Revenant.(2015).BDRip.720p.[denis100]
Encoded date : UTC 2016-05-23 11:40:19
Writing application : mkvmerge v5.8.0 ('No Sleep / Pillow') built on Sep 2 2012 15:37:04
Writing library : libebml v1.2.3 + libmatroska v1.3.0

Video
ID : 1
Format : AVC
Format/Info : Advanced Video Codec
Format profile : [email protected]
Format settings, CABAC : Yes
Format settings, ReFrames : 11 frames
Codec ID : V_MPEG4/ISO/AVC
Duration : 2h 36mn
Bit rate : 4 859 Kbps
Width : 1 280 pixels
Height : 536 pixels
Display aspect ratio : 2.40:1
Frame rate : 23.976 fps
Color space : YUV
Chroma subsampling : 4:2:0
Bit depth : 8 bits
Scan type : Progressive
Bits/(Pixel*Frame) : 0.295
Stream size : 5.14 GiB (65%)
Title : The Revenant.(2015).BDRip.720p.[denis100]
Writing library : x264 core 148 r2692 64f4e24
Encoding settings : cabac=1 / ref=11 / deblock=1:-3:-3 / analyse=0x3:0x133 / me=umh / subme=11 / psy=1 / psy_rd=1.00:0.00 / mixed_ref=1 / me_range=32 / chroma_me=1 / trellis=2 / 8x8dct=1 / cqm=0 / deadzone=21,11 / fast_pskip=0 / chroma_qp_offset=-2 / threads=6 / lookahead_threads=1 / sliced_threads=0 / nr=0 / decimate=1 / interlaced=0 / bluray_compat=0 / constrained_intra=0 / bframes=10 / b_pyramid=2 / b_adapt=2 / b_bias=0 / direct=3 / weightb=1 / open_gop=0 / weightp=2 / keyint=240 / keyint_min=23 / scenecut=40 / intra_refresh=0 / rc=2pass / mbtree=0 / bitrate=4859 / ratetol=1.0 / qcomp=0.60 / qpmin=0 / qpmax=69 / qpstep=4 / cplxblur=20.0 / qblur=0.5 / ip_ratio=1.40 / pb_ratio=1.30 / aq=1:1.00
Language : English
Default : Yes
Forced : No

Audio #1
ID : 2
Format : AC-3
Format/Info : Audio Coding 3
Mode extension : CM (complete main)
Codec ID : A_AC3
Duration : 2h 36mn
Bit rate mode : Constant
Bit rate : 448 Kbps
Channel(s) : 6 channels
Channel positions : Front: L C R, Side: L R, LFE
Sampling rate : 48.0 KHz
Bit depth : 16 bits
Compression mode : Lossy
Stream size : 503 MiB (6%)
Title : Дубляж
Language : Russian
Default : Yes
Forced : No

Audio #2
ID : 3
Format : AC-3
Format/Info : Audio Coding 3
Mode extension : CM (complete main)
Codec ID : A_AC3
Duration : 2h 36mn
Bit rate mode : Constant
Bit rate : 640 Kbps
Channel(s) : 6 channels
Channel positions : Front: L C R, Side: L R, LFE
Sampling rate : 48.0 KHz
Bit depth : 16 bits
Compression mode : Lossy
Stream size : 718 MiB (9%)
Title : AVO, Ю.Сербин
Language : Russian
Default : No
Forced : No

Audio #3
ID : 4
Format : AC-3
Format/Info : Audio Coding 3
Mode extension : CM (complete main)
Codec ID : A_AC3
Duration : 2h 36mn
Bit rate mode : Constant
Bit rate : 640 Kbps
Channel(s) : 6 channels
Channel positions : Front: L C R, Side: L R, LFE
Sampling rate : 48.0 KHz
Bit depth : 16 bits
Compression mode : Lossy
Stream size : 718 MiB (9%)
Title : AVO, Д. Есарев
Language : Russian
Default : No
Forced : No

Audio #4
ID : 5
Format : AC-3
Format/Info : Audio Coding 3
Mode extension : CM (complete main)
Codec ID : A_AC3
Duration : 2h 36mn
Bit rate mode : Constant
Bit rate : 640 Kbps
Channel(s) : 6 channels
Channel positions : Front: L C R, Side: L R, LFE
Sampling rate : 48.0 KHz
Bit depth : 16 bits
Compression mode : Lossy
Stream size : 718 MiB (9%)
Language : English
Default : No
Forced : No

Text #1
ID : 6
Format : UTF-8
Codec ID : S_TEXT/UTF8
Codec ID/Info : UTF-8 Plain Text
Title : Forced
Language : Russian
Default : Yes
Forced : No

Text #2
ID : 7
Format : UTF-8
Codec ID : S_TEXT/UTF8
Codec ID/Info : UTF-8 Plain Text
Language : Russian
Default : No
Forced : No

Text #3
ID : 8
Format : UTF-8
Codec ID : S_TEXT/UTF8
Codec ID/Info : UTF-8 Plain Text
Title : CoTranslate
Language : Russian
Default : No
Forced : No

Text #4
ID : 9
Format : UTF-8
Codec ID : S_TEXT/UTF8
Codec ID/Info : UTF-8 Plain Text
Title : EgZvor, Polaris198
Language : Russian
Default : No
Forced : No

Text #5
ID : 10
Format : UTF-8
Codec ID : S_TEXT/UTF8
Codec ID/Info : UTF-8 Plain Text
Title : Forced
Language : English
Default : No
Forced : No

Text #6
ID : 11
Format : UTF-8
Codec ID : S_TEXT/UTF8
Codec ID/Info : UTF-8 Plain Text
Language : English
Default : No
Forced : No

Text #7
ID : 12
Format : UTF-8
Codec ID : S_TEXT/UTF8
Codec ID/Info : UTF-8 Plain Text
Title : SDH
Language : English
Default : No
Forced : No

Text #8
ID : 13
Format : UTF-8
Codec ID : S_TEXT/UTF8
Codec ID/Info : UTF-8 Plain Text
Title : SDH-Colored
Language : English
Default : No
Forced : No

Menu
00:00:00.000 : en:Chapter 1
00:05:04.846 : en:Chapter 2
00:07:58.311 : en:Chapter 3
00:13:18.965 : en:Chapter 4
00:21:10.686 : en:Chapter 5
00:28:21.658 : en:Chapter 6
00:37:07.767 : en:Chapter 7
00:44:00.346 : en:Chapter 8
00:48:14.975 : en:Chapter 9
00:51:42.266 : en:Chapter 10
00:56:51.033 : en:Chapter 11
00:59:50.754 : en:Chapter 12
01:03:31.766 : en:Chapter 13
01:11:52.433 : en:Chapter 14
01:16:36.133 : en:Chapter 15
01:21:22.377 : en:Chapter 16
01:28:31.139 : en:Chapter 17
01:37:29.969 : en:Chapter 18
01:48:44.643 : en:Chapter 19
01:53:08.782 : en:Chapter 20
01:59:05.930 : en:Chapter 21
02:02:56.703 : en:Chapter 22
02:15:45.262 : en:Chapter 23
02:22:51.021 : en:Chapter 24

x264

x264 [info]: frame I:1180 Avg QP:12.53 size:139390
x264 [info]: frame P:58613 Avg QP:15.68 size: 48200
x264 [info]: frame B:165135 Avg QP:17.29 size: 16394

Скриншоты


Скачать The_Revenant.2015.BDRip.720p.denis100.torrent

просмотры: 5

Post Comment