Аниме

Ван-Пис: Приключения в Небуландии / One Piece: Adventure of Nebulandia [Special] (2015) HDTVRip | L1

Страна: Япония
Год выпуска: 2015 г.
Жанр: приключения, комедия, фэнтези
Тип: Special
Продолжительность: ТВ-спэшл 106 мин.
Режиссер: Уда Коносукэ

Описание:
Капитану пиратов Фокси, когда-то потерпевшему от Луффи и его команды сокрушительное поражение в боях Дэйви Блэка, уже давно не терпелось устроить матч-реванш. Оно и понятно: Луффи не только прервал его длительную череду побед, но и отобрал милого сердцу Веселого Роджера, взамен которого нарисовал совершенно нелепый флаг. По вине Мугивар Фокси превратился в посмешище! К счастью, скоро его страданиям придет конец: пополнив команду за счет нескольких весьма талантливых личностей, Фокси обновил корабль и разработал коварный план по заманиванию Мугивар на остров, где они будут вынуждены согласиться на матч-реванш.
Началось все просто замечательно: Мугивары клюнули на приманку, а их капитан не стал увиливать от нового состязания, несмотря на протесты вконец перепуганного Чоппера. Новая игра, проводимая в условиях обильных возлияний и гор свежеприготовленной еды, даже обещала стать неплохим времяпрепровождением для обеих команд. Фокси не учел только одного: его желание свести счеты с Луффи сыграло на руку коварному врагу всех пиратов в мире. И если Мугивары не объединят силы с недавними врагами и не проявят изобретательность, эта переделка очень скоро превратится в стремительный закат их блистательных приключений. ©

Доп. информация:
Релиз GSGroup

Качество: HDTVRip
Тип релиза: Без хардсаба
Формат видео: AVI
Совместимость с бытовыми плеерами: Да
Видео: 720×400 XviD 23.976 fps 1 624 Kbps 8 bits
Аудио: AC-3 48.0 KHz 2 channels 192 Kbps Язык Русский (в составе контейнера) ; Озвучка: женская одноголосая: Persona99
Аудио 2: AC-3 48.0 KHz 2 channels 192 Kbps Язык Японский
Субтитры: ass, srt, внешние Язык субтитров русский ; Перевод: One Piece ru

Подробные тех. данные

General
Complete name : One Piece — Adventure of NebulandiaOne Piece — Adventure of Nebulandia SP [Persona99].avi
Format : AVI
Format/Info : Audio Video Interleave
File size : 1.50 GiB
Duration : 1h 46mn
Overall bit rate : 2 022 Kbps
Writing application : VirtualDubMod 1.5.10.2 (build 2540/release)
Writing library : VirtualDubMod build 2540/release

Video
ID : 0
Format : MPEG-4 Visual
Format profile : Advanced [email protected]
Format settings, BVOP : 2
Format settings, QPel : No
Format settings, GMC : No warppoints
Format settings, Matrix : Default (H.263)
Codec ID : XVID
Codec ID/Hint : XviD
Duration : 1h 46mn
Bit rate : 1 624 Kbps
Width : 720 pixels
Height : 400 pixels
Display aspect ratio : 16:9
Frame rate : 23.976 fps
Color space : YUV
Chroma subsampling : 4:2:0
Bit depth : 8 bits
Scan type : Progressive
Compression mode : Lossy
Bits/(Pixel*Frame) : 0.235
Stream size : 1.21 GiB (80%)
Writing library : XviD 67

Audio #1
ID : 1
Format : AC-3
Format/Info : Audio Coding 3
Mode extension : CM (complete main)
Format settings, Endianness : Big
Codec ID : 2000
Duration : 1h 46mn
Bit rate mode : Constant
Bit rate : 192 Kbps
Channel(s) : 2 channels
Channel positions : Front: L R
Sampling rate : 48.0 KHz
Compression mode : Lossy
Stream size : 146 MiB (9%)
Alignment : Split accross interleaves
Interleave, duration : 42 ms (1.00 video frame)
Interleave, preload duration : 500 ms

Audio #2
ID : 2
Format : AC-3
Format/Info : Audio Coding 3
Mode extension : CM (complete main)
Format settings, Endianness : Big
Codec ID : 2000
Duration : 1h 46mn
Bit rate mode : Constant
Bit rate : 192 Kbps
Channel(s) : 2 channels
Channel positions : Front: L R
Sampling rate : 48.0 KHz
Compression mode : Lossy
Stream size : 146 MiB (9%)
Alignment : Split accross interleaves
Interleave, duration : 42 ms (1.00 video frame)
Interleave, preload duration : 500 ms

Скриншоты


Семпл: https://yadi.sk/i/ZdPQGi2Ft2jwv



Скачать One_Piece_-_Adventure_of_Nebulandia.torrent

просмотры: 26

Post Comment