Аниме

Тетрадь смерти / Death Note [01-37 из 37] (2006) BDRip 720p от SDIncorporation | Mega-Anime | Original Color

Тетрадь смерти / Death Note (2006) [01-37 из 37] BDRip [720p-HQ] (Original Color) от SDIncorporation | Mega-Anime

Информация о фильме
Русское название: Тетрадь смерти
Оригинальное название: Death Note
Страна: Япония
Студия: Madhouse
Год выпуска: 2006
Жанр: Детектив, Криминал, Драма, мистика
Перевод: Профессиональный многоголосый закадровый

Автор перевода: Mega-Anime
Режиссер: Араки Тэцуро
Работа над релизом:

  • Nod33Eset(retvil) [01-37]
  • StreetDespair [01-37]
  • Jonny_NAT [01-37]
  • 69SexyMan [18,24-26,31-33]
    Исходник: BluRay 2016 Год

    О фильме:
    Тетрадь смерти (яп. ????? Дэсу Но:то, Death Note) — ставшая культовой японская манга, придуманная Цугуми Обой и нарисованная Такэси Обатой, а также выпущенные на её основе анимационные сериал и фильмы, игровые фильмы, лайт-новел и видеоигры.
    В основу сюжета легла философская идея: «Можно ли добиться блага для одних людей путем убийств других?». Автор придумал оригинальную историю, в которой отражается суть того, что бы могло быть с миром, если бы человек мог безнаказанно убивать одних людей, чтобы сделать лучше жизнь других. Цугуми Ооба рассматривает реакцию как самого убийцы, его мотивы и желания, так и реакцию общества на действия убийцы.

    Сюжет:
    Лайт Ягами — лучший ученик Японии, сын полицейского, который с детства хотел пойти по стопам отца, чтобы искоренить преступность не только в Японии, но и во всём мире.
    Однажды, когда одному из синигами (богов смерти) Рюку стало скучно, он подкинул Тетрадь смерти — совершенное орудие убийства — на Землю. Лайту, нашедшему тетрадь, выпал случай изменить мир быстро и безнаказанно. Он стал вершить своё правосудие: убивать преступников.
    Торжество Лайта над преступностью было недолгим, ибо совсем скоро странными смертями преступников заинтересовался Интерпол и начал расследование, подключив к нему не только весь мир, но и самого востребованного детектива, всегда скрывающегося под псевдонимом L (Эл). L начинает настоящую войну с Лайтом, которому в это время уже дали прозвище Кира (латиницей яп. ??, Kira — убийца). Противостояние гениев — лучшего ученика Японии с одной стороны и лучшего детектива в мире с другой — начинает историю «Тетради смерти».
    Лайт не может совершать ошибки, потому что если его поймают, он не сможет вершить своё правосудие и получит смертный приговор. Его оппонент тоже не может сделать ни одной ошибки, потому что в противном случае Кира убьёт его. В это противостояние, к тому же, вмешиваются сверхъестественные силы в лице богов смерти, а также другие последователи Киры и сторонники L.


    Продолжительность: 37 из 37 серий по ~00:23:00
    Качество видео: BDRip 720p-HQ (Original Color)
    Видеокодек: AVC
    Формат: MKV
    Битрейт видео: ~7000 Kbps
    Размер кадра: 1280×720
    Аудиокодек: AC3
    Битрейт аудио: 448 kbps
    Аудио #1: Русский (48 kHz, AC3 Dolby Digital, 2 channels, ~448 kbps) — Профессиональный многоголосый закадровый [Mega-Anime]
    Аудио #2: Английский (48 kHz, AC3 Dolby Digital, 2 channels, ~448 kbps) — Профессиональный Многоголосый закадровый [VIZ Media]
    Аудио #3: Японский (48 kHz, AC3 Dolby Digital, 2 channels, ~448 kbps) — [Japanese]


    MI:

    General
    Unique ID : 178045345830532728961110356186425555043 (0x85F2494AEA8BB6F39783F153640D7863)
    Complete name : Death.Note.s01e01.BDRip.720p.HQ.Original.Color.Rus.Eng.Jap.SDIncorporation.mkv
    Format : Matroska
    Format version : Version 4 / Version 2
    File size : 1.16 GiB
    Duration : 23mn 1s
    Overall bit rate : 7 237 Kbps
    Movie name : Death Note Episode 1 [BDRip 720p-HQ] (Original Color) © SDIncorporation
    Encoded date : UTC 2016-06-09 20:13:28
    Writing application : mkvmerge v9.2.0 ('Photograph') 64bit
    Writing library : libebml v1.3.3 + libmatroska v1.4.4
    Cover : Yes
    Attachments : cover.png

    Video
    ID : 1
    Format : AVC
    Format/Info : Advanced Video Codec
    Format profile : [email protected]
    Format settings, CABAC : Yes
    Format settings, ReFrames : 1 frame
    Codec ID : V_MPEG4/ISO/AVC
    Duration : 23mn 1s
    Bit rate : 5 889 Kbps
    Nominal bit rate : 3 000 Kbps
    Width : 1 280 pixels
    Height : 720 pixels
    Display aspect ratio : 16:9
    Frame rate mode : Variable
    Frame rate : 23.976 (23976/1000) fps
    Original frame rate : 30.000 fps
    Color space : YUV
    Chroma subsampling : 4:2:0
    Bit depth : 8 bits
    Scan type : Progressive
    Bits/(Pixel*Frame) : 0.267
    Stream size : 970 MiB (81%)
    Title : Video
    Writing library : x264 core 133 r2334 a3ac64b
    Encoding settings : cabac=0 / ref=3 / deblock=1:0:0 / analyse=0x3:0x113 / me=umh / subme=9 / psy=1 / psy_rd=1.00:0.00 / mixed_ref=1 / me_range=32 / chroma_me=1 / trellis=0 / 8x8dct=1 / cqm=0 / deadzone=21,11 / fast_pskip=0 / chroma_qp_offset=-2 / threads=12 / lookahead_threads=1 / sliced_threads=0 / nr=0 / decimate=1 / interlaced=0 / bluray_compat=0 / constrained_intra=0 / bframes=3 / b_pyramid=0 / b_adapt=2 / b_bias=0 / direct=3 / weightb=0 / open_gop=0 / weightp=0 / keyint=250 / keyint_min=25 / scenecut=40 / intra_refresh=0 / rc_lookahead=40 / rc=2pass / mbtree=1 / bitrate=3000 / ratetol=1.0 / qcomp=0.60 / qpmin=0 / qpmax=69 / qpstep=4 / cplxblur=20.0 / qblur=0.5 / vbv_maxrate=9500 / vbv_bufsize=9500 / nal_hrd=none / ip_ratio=1.40 / aq=1:1.00
    Default : Yes
    Forced : No

    Audio #1
    ID : 2
    Format : AC-3
    Format/Info : Audio Coding 3
    Mode extension : CM (complete main)
    Format settings, Endianness : Big
    Codec ID : A_AC3
    Duration : 23mn 1s
    Bit rate mode : Constant
    Bit rate : 448 Kbps
    Channel(s) : 2 channels
    Channel positions : Front: L R
    Sampling rate : 48.0 KHz
    Frame rate : 31.250 fps (1536 spf)
    Compression mode : Lossy
    Stream size : 73.8 MiB (6%)
    Title : Russian (Mega-Anime)
    Language : Russian
    Default : Yes
    Forced : No

    Audio #2
    ID : 3
    Format : AC-3
    Format/Info : Audio Coding 3
    Mode extension : CM (complete main)
    Format settings, Endianness : Big
    Codec ID : A_AC3
    Duration : 23mn 1s
    Bit rate mode : Constant
    Bit rate : 448 Kbps
    Channel(s) : 2 channels
    Channel positions : Front: L R
    Sampling rate : 48.0 KHz
    Frame rate : 31.250 fps (1536 spf)
    Compression mode : Lossy
    Stream size : 73.8 MiB (6%)
    Title : English (VIZ Media)
    Language : English
    Default : No
    Forced : No

    Audio #3
    ID : 4
    Format : AC-3
    Format/Info : Audio Coding 3
    Mode extension : CM (complete main)
    Format settings, Endianness : Big
    Codec ID : A_AC3
    Duration : 23mn 1s
    Bit rate mode : Constant
    Bit rate : 448 Kbps
    Channel(s) : 2 channels
    Channel positions : Front: L R
    Sampling rate : 48.0 KHz
    Frame rate : 31.250 fps (1536 spf)
    Compression mode : Lossy
    Stream size : 73.8 MiB (6%)
    Title : Japanese (Original)
    Language : Japanese
    Default : No
    Forced : No

    Menu
    00:00:00.000 : :Chapter 1
    00:01:26.127 : :Chapter 2
    00:10:46.145 : :Chapter 3
    00:21:26.243 : :Chapter 4
    00:22:36.188 : :Chapter 5

    Список серий

    № — Википедия / Кинопоиск / Японский / Английский
    01 — Перерождение / Тетрадь смерти / Shinsei / New Birth
    02 — Конфронтация / Противостояние / Taiketsu / Confrontation
    03 — Сделка / СделкаTorihiki / Deal
    04 — Преследование / Погоня / Tsuiseki / Pursuit
    05 — Тактика / Торг / Kakehiki / Tactics
    06 — Разрыв / Открытый шов / Hokorobi / Rent
    07 — Облачное небо / Хмурое небо / Donten / Cloudy Weather
    08 — Взгляд / Взгляд / Mesen / Glance
    09 — Контакт / Контакт / Sesshoku / Touch
    10 — Подозрение / Подозрение / Giwaku / Suspicion
    11 — Вторжение / Штурм / Totsunyu / Plunge
    12 — Любовь / Любовь / Koigokoro / Beloved
    13 — Признание / Признание / Kokuhaku / Confession
    14 — Друг / Друг / Tomodachi / Friend
    15 — Игра / СтавкаKake / Gambling
    16 — Решение / Решение / Ketsudan / Determination
    17 — Казнь / Казнь / Shikkou / Enforcement
    18 — Компаньон / Товарищи / Nakama / Comrade *
    19 — Мацуда / Мацуда / Matsuda / Matsuda
    20 — Замена / Замена / Kosoku / Makeshift
    21 — Участие / Работа / Katsuyaku / Activity
    22 — Управление / Направление / Yuudou / Lead
    23 — Мания / Безумие / Kyousou / Crazy
    24 — Возрождение / Возрождение / Fukkatsu / Resurrection *
    25 — Тишина / Тишина / Chinmoku / Silence *
    26 — Воспроизведение / Воспроизведение / Saisei / Reincarnation *
    27 — Похищение / Похищение / Yukai / Abduction
    28 — Нетерпение / Нетерпение / Kokei / Impatience
    29 — Отец / Отец / Chichioya / Father
    30 — Справедливость / Справедливость / Seigi / Justice
    31 — Передача / Перемещение / Ijou / Transfer *
    32 — Выбор / Выбор / Sentaku / Selection *
    33 — Насмешка / Усмешка / Choushou / Ridicule *
    34 — Осторожность / Настороженность / Koshi / Vigilance
    35 — Преступное намерение / Жажда крови / Satsui / Murderous Intent
    36 — 28 января / 28 января / 1.28 / 1.28
    37 — Новый мир / Новый мир / Shinsekai / New World
    *FIX by 69SexyMan







    Время раздачи: С 8:00 до 22:00

    Релиз от: ©SDIncorporation


  • Скачать Death.Note.BDRip.720p.HQ.Original.Color.Rus.Eng.torrent

    просмотры: 8

    Post Comment