Зарубежные фильмы Исторический

Шпионский мост / Bridge of Spies (2015) DVD5

«Когда мир на грани войны,
лишь честь одного человека
может предотвратить катастрофу»

Год выпуска: 2015
Производство: США, Германия, Индия / Touchstone Pictures, DreamWorks SKG, Fox 2000 Pictures, Reliance Entertainment, Participant Media, TSG Entertainment
Жанр: Триллер, драма, история

Режиссер: Стивен Спилберг
Продюсеры: Кристи Макоско Кригер, Марк Э. Платт, Стивен Спилберг
Актеры: Том Хэнкс, Марк Райлэнс, Эми Райан, Алан Алда, Остин Стоуэлл, Скотт Шеперд, Джесси Племонс, Доменик Ломбардоззи, Себастьян Кох, Ив Хьюсон

Описание фильма:
Действие фильма происходит на фоне серии реальных исторических событий и рассказывает о бруклинском адвокате Джеймсе Доноване, который оказывается в эпицентре холодной войны, когда ЦРУ отправляет его на практически невозможное задание — договориться об освобождении захваченного в СССР американского пилота самолета-разведчика U2.

Перевод: Дублированный
Субтитры: Английские, русские


Дата мировой премьеры: 4 октября 2015
Дата премьеры в России: 3 декабря 2015, «Двадцатый Век Фокс СНГ»


Продолжительность: 02:21:11
Качество видео: DVD5

Видео: MPEG-2, 720×[email protected]×480 (NTSC 16:9), ~4100 Кбит/сек
Аудио: AC3 5.1, 448 Кбит/сек

DVDInfo:
Title: Bridge of Spies (2015) DVD5 NTSC
Size: 4.37 Gb ( 4 585 564,00 KBytes ) — DVD-5
Enabled regions: 1, 2, 3, 4, 5, 6, 7, 8

VTS_01 :
Play Length: 02:21:11
Video: NTSC 16:9 (720×480) VBR, Auto Letterboxed
Audio:
Russian (Dolby AC3, 6 ch)
Subtitles:
English
Russian
Russian

VTS_02 :
Play Length: 00:00:00
Video: NTSC 16:9 (720×480) VBR, Auto Letterboxed

* Menus Information *

VIDEO_TS Menu
Video:
NTSC 16:9 (720×480) VBR
Auto Pan&Scan
Audio:
Not specified (Dolby AC3, 2 ch)
English Language Unit :
Title Menu

VTS_01 Menu
Video:
NTSC 4:3 (720×480) VBR
Auto Pan&Scan, Auto Letterboxed
English Language Unit :
Root Menu
Angle menu

VTS_02 Menu
Video:
NTSC 16:9 (720×480) VBR
Auto Pan&Scan
Audio:
Not specified (Dolby AC3, 2 ch)
English Language Unit :
Root Menu
Angle menu
MediaInfo:
Общее
Полное имя : G:ВидеоBridge of Spies (2015) DVD5 NTSCVIDEO_TSVTS_01_2.VOB
Формат : MPEG-PS
Размер файла : 1024 Мбайт
Продолжительность : 30 м.
Режим общего битрейта : Переменный
Общий поток : 4653 Кбит/сек

Видео
Идентификатор : 224 (0xE0)
Формат : MPEG Video
Версия формата : Version 2
Профиль формата : [email protected]
Параметр BVOP формата : Да
Параметр матрицы формата : Выборочная
Параметр GOP формата : Variable
Продолжительность : 30 м.
Вид битрейта : Переменный
Битрейт : 4113 Кбит/сек
Максимальный битрейт : 8583 Кбит/сек
Ширина : 720 пикселей
Высота : 480 пикселей
Соотношение сторон : 16:9
Частота кадров : 23,976 кадра/сек
Стандарт вещания : NTSC
Цветовое пространство : YUV
Субдискретизация насыщенности : 4:2:0
Битовая глубина : 8 бит
Тип развёртки : Прогрессивная
Порядок развёртки : 2:3 Pulldown
Метод сжатия : С потерями
Бит/(Пиксели*Кадры) : 0.496
Временной код первого кадра : 00:33:27:04
Оригинал временного кода : Group of pictures header
GOP, открыто/закрыто : Открыто
Размер потока : 905 Мбайт (88%)

Аудио
Идентификатор : 189 (0xBD)-128 (0x80)
Формат : AC-3
Формат/Информация : Audio Coding 3
Расширение режима : CM (complete main)
Параметр Endianness формата : Big
Режим смешивания : DVD-Video
Продолжительность : 30 м.
Вид битрейта : Постоянный
Битрейт : 448 Кбит/сек
Каналы : 6 каналов
Расположение каналов : Front: L C R, Side: L R, LFE
Частота : 48,0 КГц
Битовая глубина : 16 бит
Метод сжатия : С потерями
Задержка видео : -567 мс.
Размер потока : 98,6 Мбайт (10%)

Текст #1
Идентификатор : 189 (0xBD)-32 (0x20)
Формат : RLE
Формат/Информация : Run-length encoding
Режим смешивания : DVD-Video
Продолжительность : 30 м.
Задержка видео : 600 мс.

Текст #2
Идентификатор : 189 (0xBD)-33 (0x21)
Формат : RLE
Формат/Информация : Run-length encoding
Режим смешивания : DVD-Video
Продолжительность : 30 м.
Задержка видео : 67 мс.

Меню

Доп. информация:
Исходник: Шпионский мост / Bridge of Spies (2015) DVD9 | Custom
Удалены: доп. материалы, две звуковые дорожки (в меню кнопки затёрты).
Команды диска переписаны заново, оставлено два VTS.
Видео сжато на 22,1%
Меню: статичное, недействующие кнопки затерты и закрыты.
Обработка и сжатие: DVD ReMake Pro + DVD Rebuilder + CCE SP2 [7 проходов] + Работа с меню (Adobe PhotoShop и MuxMan).
Скриншоты меню:

Скриншоты:


Скачать Bridge_of_Spies_2015_DVD5_NTSC.torrent

просмотры: 5

Post Comment