Вестерн Зарубежные фильмы

Омерзительная восьмерка / The Hateful Eight (2015) BDRip HEVC 720p | D, A | Лицензия

Название: Омерзительная восьмерка
Оригинальное название: The Hateful Eight


Год выпуска: 2015
Страна: США
Жанр: триллер, драма, криминал, детектив, вестерн
Продолжительность: 02:47:46
Перевод: Дублированный [Лицензия], Авторский одноголосый
Субтитры: Русские, английские


В ролях: Курт Расселл, Сэмюэл Л. Джексон, Тим Рот, Майкл Мэдсен, Дженнифер Джейсон Ли, Уолтон Гоггинс, Демиан Бишир, Брюс Дерн, Джеймс Паркс, Дэна Гурье, Зои Белл, Ли Хорсли, Джин Джонс, Кит Джеффресон, Крэйг Старк, Белинда Овино, Ченнинг Татум, Брюс Дель Кастилло, Квентин Тарантино
Режиссёр: Квентин Тарантино


Описание: Эта добрая история от Квентина Тарантино начинается в занесенных снегами полях Вайоминга вблизи Скалистых гор спустя два года после окончания Гражданской войны. Знаменитый охотник за головами Джон "Вешатель" Рут галантно сопровождает до ближайшей виселицы некую Дейзи Домергу, беспрестанно демонстрирующую ослепительную улыбку в три зуба. На дороге они подбирают еще двоих случайных попутчиков. Все четверо вынуждены искать укрытие от надвигающегося снежного бурана в галантерейной лавке Минни на горном перевале, где их ожидает целый парк кровавых аттракционов.


Качество: BDRip, 720p, H.265
Формат: MKV
Видео кодек: x265
Аудио кодек: AC3
Видео: 1280×464, 23,976 fps, HEVC, ~3050 kbps
Аудио 1: Rus, 48 kHz/16-bit, AC3 5.1, ~448 kbps | Дубляж
Аудио 2: Rus, 48 kHz/16-bit, AC3 5.1, ~448 kbps | Авторский одноголосый (А. Матвеев)
Аудио 3: Eng, 48 kHz/16-bit, AC3 5.1, ~448 kbps | Оригинал
Навигация по главам: Присутствуcет


Автор рипа: Alex_A




Внимание!
H.265/HEVC (High Efficiency Video Coding) — это новый стандарт кодирования видео.
Стандарт H.265/HEVC является логическим продолжением стандарта H.264/AVC (Advanced Video Coding), и характеризуется более эффективными алгоритмами сжатия, а также поддержкой высокого разрешения вплоть до 8K UHD (8192×4320). Первая версия стандарта H.265 была опубликована в начале 2013 года.
Рипы в фомате HEVC, в настоящее время не поддерживается большинством аппаратных проигрывателей.
Для корректного воспроизведения может потребоваться обновление ПО.
Владельцам несовместимого железа просьба не беспокоить, есть альтернативные релизы.

Медиаинфо
Общее
Уникальный идентификатор : 224060923345009473619361974714098612496 (0xA890906D0899EA3D86562B6FD0F17910)
Полное имя : e:HEVCThe Hateful Eight (2015)The.Hateful.Eight.2015.720p_HEVCCLUB.mkv
Формат : Matroska
Версия формата : Version 4 / Version 2
Размер файла : 5,15 Гбайт
Продолжительность : 2 ч. 47 м.
Общий поток : 4396 Кбит/сек
Название фильма : The Hateful Eight (2015) — HEVC.CLUB
Дата кодирования : UTC 2016-05-20 05:10:46
Программа кодирования : mkvmerge v9.1.0 ('Little Earthquakes') 64bit
Библиотека кодирования : libebml v1.3.3 + libmatroska v1.4.4
Обложка : Yes
Attachments : cover.jpg

Видео
Идентификатор : 1
Формат : HEVC
Формат/Информация : High Efficiency Video Coding
Профиль формата : [email protected]@Main
Идентификатор кодека : V_MPEGH/ISO/HEVC
Продолжительность : 2 ч. 47 м.
Битрейт : 3050 Кбит/сек
Ширина : 1280 пикселей
Высота : 464 пикселя
Соотношение сторон : 2,759
Режим частоты кадров : Переменный
Частота кадров : 23,976 кадра/сек
Цветовое пространство : YUV
Субдискретизация насыщенности : 4:2:0
Битовая глубина : 8 бит
Бит/(Пиксели*Кадры) : 0.214
Размер потока : 3,57 Гбайт (69%)
Заголовок : HEVC.CLUB
Библиотека кодирования : x265 1.9+150-00ea3784bd36:[Windows][GCC 5.3.0][64 bit] 8bit
Настройки программы : wpp / ctu=64 / min-cu-size=8 / max-tu-size=32 / tu-intra-depth=1 / tu-inter-depth=1 / me=3 / subme=5 / merange=92 / no-rect / no-amp / max-merge=2 / temporal-mvp / no-early-skip / rdpenalty=0 / no-tskip / no-tskip-fast / strong-intra-smoothing / no-lossless / no-cu-lossless / no-constrained-intra / no-fast-intra / open-gop / no-temporal-layers / interlace=0 / keyint=230 / min-keyint=23 / scenecut=40 / rc-lookahead=60 / lookahead-slices=0 / bframes=8 / bframe-bias=0 / b-adapt=2 / ref=5 / limit-refs=3 / no-limit-modes / weightp / weightb / aq-mode=1 / qg-size=32 / aq-strength=1.00 / cbqpoffs=0 / crqpoffs=0 / rd=3 / psy-rd=2.00 / rdoq-level=0 / psy-rdoq=0.00 / no-rd-refine / signhide / deblock=-3:-3 / sao / no-sao-non-deblock / b-pyramid / cutree / no-intra-refresh / rc=2 / pass / bitrate=3049 / qcomp=0.60 / qpmin=0 / qpmax=51 / qpstep=4 / cplxblur=20.0 / qblur=0.5 / ipratio=1.40 / pbratio=1.30
Язык : English
Default : Да
Forced : Нет

Аудио #1
Идентификатор : 2
Формат : AC-3
Формат/Информация : Audio Coding 3
Расширение режима : CM (complete main)
Параметр Endianness формата : Big
Идентификатор кодека : A_AC3
Продолжительность : 2 ч. 47 м.
Вид битрейта : Постоянный
Битрейт : 448 Кбит/сек
Каналы : 6 каналов
Расположение каналов : Front: L C R, Side: L R, LFE
Частота : 48,0 КГц
Частота кадров : 31,250 кадров/сек (1536 spf)
Метод сжатия : С потерями
Размер потока : 538 Мбайт (10%)
Заголовок : DUB
Язык : Russian
Default : Да
Forced : Нет

Аудио #2
Идентификатор : 3
Формат : AC-3
Формат/Информация : Audio Coding 3
Расширение режима : CM (complete main)
Параметр Endianness формата : Big
Идентификатор кодека : A_AC3
Продолжительность : 2 ч. 47 м.
Вид битрейта : Постоянный
Битрейт : 448 Кбит/сек
Каналы : 6 каналов
Расположение каналов : Front: L C R, Side: L R, LFE
Частота : 48,0 КГц
Частота кадров : 31,250 кадров/сек (1536 spf)
Метод сжатия : С потерями
Размер потока : 538 Мбайт (10%)
Заголовок : Matveev
Язык : Russian
Default : Нет
Forced : Нет

Аудио #3
Идентификатор : 4
Формат : AC-3
Формат/Информация : Audio Coding 3
Расширение режима : CM (complete main)
Параметр Endianness формата : Big
Идентификатор кодека : A_AC3
Продолжительность : 2 ч. 47 м.
Вид битрейта : Постоянный
Битрейт : 448 Кбит/сек
Каналы : 6 каналов
Расположение каналов : Front: L C R, Side: L R, LFE
Частота : 48,0 КГц
Частота кадров : 31,250 кадров/сек (1536 spf)
Метод сжатия : С потерями
Размер потока : 538 Мбайт (10%)
Заголовок : Original
Язык : English
Default : Нет
Forced : Нет

Текст #1
Идентификатор : 5
Формат : UTF-8
Идентификатор кодека : S_TEXT/UTF8
Идентификатор кодека/Информация : UTF-8 Plain Text
Продолжительность : 2 ч. 18 м.
Битрейт : 1 бит/сек
Count of elements : 15
Размер потока : 1,02 Кбайт (0%)
Заголовок : Forced
Язык : Russian
Default : Да
Forced : Нет

Текст #2
Идентификатор : 6
Формат : UTF-8
Идентификатор кодека : S_TEXT/UTF8
Идентификатор кодека/Информация : UTF-8 Plain Text
Продолжительность : 2 ч. 41 м.
Битрейт : 90 бит/сек
Count of elements : 1740
Размер потока : 107 Кбайт (0%)
Заголовок : Full
Язык : Russian
Default : Нет
Forced : Нет

Текст #3
Идентификатор : 7
Формат : UTF-8
Идентификатор кодека : S_TEXT/UTF8
Идентификатор кодека/Информация : UTF-8 Plain Text
Продолжительность : 2 ч. 38 м.
Битрейт : 62 бит/сек
Count of elements : 2633
Размер потока : 72,3 Кбайт (0%)
Язык : English
Default : Нет
Forced : Нет

Текст #4
Идентификатор : 8
Формат : UTF-8
Идентификатор кодека : S_TEXT/UTF8
Идентификатор кодека/Информация : UTF-8 Plain Text
Продолжительность : 2 ч. 47 м.
Битрейт : 67 бит/сек
Count of elements : 3045
Размер потока : 82,4 Кбайт (0%)
Заголовок : SDH
Язык : English
Default : Нет
Forced : Нет

Меню
00:00:00.000 : :Chapter 01
00:04:33.523 : :Chapter 02
00:11:36.112 : :Chapter 03
00:22:01.362 : :Chapter 04
00:35:02.434 : :Chapter 05
00:43:31.901 : :Chapter 06
00:52:12.212 : :Chapter 07
00:59:04.499 : :Chapter 08
01:08:30.314 : :Chapter 09
01:16:10.858 : :Chapter 10
01:25:18.447 : :Chapter 11
01:35:06.492 : :Chapter 12
01:42:20.176 : :Chapter 13
01:50:33.335 : :Chapter 14
01:59:32.499 : :Chapter 15
02:06:43.054 : :Chapter 16
02:13:26.624 : :Chapter 17
02:19:59.725 : :Chapter 18
02:24:17.023 : :Chapter 19
02:34:08.114 : :Chapter 20
02:39:38.027 : :Chapter 21
02:43:22.751 : :Chapter 22

Скриншоты


Скачать The.Hateful.Eight.2015.720p_HEVCCLUB.torrent

просмотры: 0

Post Comment