Военный Зарубежные фильмы

20000 лье под водой / 20,000 Leagues Under the Sea (1954) BDRip 720p | P

Информация о фильме
Название: 20000 лье под водой
Оригинальное название: 20,000 Leagues Under the Sea
Год выхода: 1954
Жанр: фантастика, драма, приключения, семейный
Режиссер: Ричард Флайшер
В ролях: Кирк Дуглас, Джеймс Мейсон, Пол Лукас, Петер Лорре, Роберт Дж. Уилки, Тед де Корсия, Карлтон Янг, Дж. М. Кэрриган, Перси Хелтон, Тед Купер

О фильме:
На календаре 1868 год и весь Сан-Франциско взбудоражен поступающими сообщениями о плавающем под водой огромном чудовище, которое может сожрать любое судно, если оно к нему приближается. Многие плавания отменены, и правительство вынуждено послать военный корабль исследовать и очистить море от «чудищ».

Корабль этот был потоплен неизвестным «существом», и только троим чудом удалось спастись: профессональному гарпунисту, профессору из Морского музея в Париже и его помощнику. Их вытаскивают из воды на эту чуду-юду, которое оказывается подводной лодкой Капитана Немо, ученого, изобретателя и радикального борца за мир. Он топит корабли с благородной целью покончить с войной на бескрайних водах мирового океана…

Страна: США
Студия: Walt Disney Productions
Продолжительность: 02:07:01
Перевод: Профессиональный (многоголосый, закадровый) Селена Интернешнл

Файл
Формат: Matroska
Видео: 1280×502 at 23.976 fps, [email protected], ~4000 kbps avg
Аудио#1: Russian: 48 kHz, AC3, 2/0 (L,R) ch, ~192 kbps avg |Многоголосый закадровый, Селена Интернешнл|
Аудио#2: English: 48 kHz, AC3, 3/2 (L,C,R,l,r) + LFE ch, ~448 kbps avg
Субтитры: None

MI
Общее
Уникальный идентификатор : 223316872335601667439418631245144940616 (0xA80143E0FD15446F9CCD9649EB1A6048)
Полное имя : 20000 лье под водой.1954.BDRip.720p.mkv
Формат : Matroska
Версия формата : Version 4 / Version 2
Размер файла : 4,18 Гбайт
Продолжительность : 2 ч. 7 м.
Общий поток : 4707 Кбит/сек
Дата кодирования : UTC 2016-07-12 07:04:01
Программа кодирования : mkvmerge v8.2.0 ('World of Adventure') 64bit
Библиотека кодирования : libebml v1.3.1 + libmatroska v1.4.2

Видео
Идентификатор : 1
Формат : AVC
Формат/Информация : Advanced Video Codec
Профиль формата : [email protected]
Параметр CABAC формата : Да
Параметр ReFrames формата : 9 кадров
Идентификатор кодека : V_MPEG4/ISO/AVC
Продолжительность : 2 ч. 7 м.
Битрейт : 3973 Кбит/сек
Ширина : 1280 пикселей
Высота : 502 пикселя
Соотношение сторон : 2,550
Режим частоты кадров : Постоянный
Частота кадров : 23,976 кадра/сек
Цветовое пространство : YUV
Субдискретизация насыщенности : 4:2:0
Битовая глубина : 8 бит
Тип развёртки : Прогрессивная
Бит/(Пиксели*Кадры) : 0.258
Размер потока : 3,53 Гбайт (84%)
Библиотека кодирования : x264 core 146 r2538 121396c
Настройки программы : cabac=1 / ref=9 / deblock=1:-3:-3 / analyse=0x3:0x113 / me=umh / subme=10 / psy=1 / psy_rd=1.00:0.15 / mixed_ref=1 / me_range=32 / chroma_me=1 / trellis=2 / 8x8dct=1 / cqm=0 / deadzone=21,11 / fast_pskip=1 / chroma_qp_offset=-3 / threads=6 / lookahead_threads=1 / sliced_threads=0 / nr=0 / decimate=1 / interlaced=0 / bluray_compat=0 / constrained_intra=0 / bframes=8 / b_pyramid=2 / b_adapt=2 / b_bias=0 / direct=1 / weightb=1 / open_gop=0 / weightp=2 / keyint=230 / keyint_min=23 / scenecut=40 / intra_refresh=0 / rc_lookahead=40 / rc=crf / mbtree=0 / crf=18.9 / qcomp=0.60 / qpmin=0 / qpmax=69 / qpstep=4 / vbv_maxrate=40000 / vbv_bufsize=50000 / crf_max=0.0 / nal_hrd=none / filler=0 / ip_ratio=1.40 / pb_ratio=1.30 / aq=1:1.00
Язык : English
Default : Да
Forced : Нет

Аудио #1
Идентификатор : 2
Формат : AC-3
Формат/Информация : Audio Coding 3
Расширение режима : CM (complete main)
Параметр Endianness формата : Big
Идентификатор кодека : A_AC3
Продолжительность : 2 ч. 7 м.
Вид битрейта : Постоянный
Битрейт : 192 Кбит/сек
Каналы : 2 канала
Расположение каналов : Front: L R
Частота : 48,0 КГц
Метод сжатия : С потерями
Размер потока : 174 Мбайт (4%)
Заголовок : MVO (Селена Интернешнл)
Язык : Russian
Default : Да
Forced : Нет

Аудио #2
Идентификатор : 3
Формат : AC-3
Формат/Информация : Audio Coding 3
Расширение режима : CM (complete main)
Параметр Endianness формата : Big
Идентификатор кодека : A_AC3
Продолжительность : 2 ч. 7 м.
Вид битрейта : Постоянный
Битрейт : 448 Кбит/сек
Каналы : 6 каналов
Расположение каналов : Front: L C R, Side: L R, LFE
Частота : 48,0 КГц
Метод сжатия : С потерями
Размер потока : 407 Мбайт (10%)
Заголовок : original
Язык : English
Default : Нет
Forced : Нет
Скриншоты


Скачать 20000.Leagues.Under.the.Sea.BDRip.720p.mkv.torrent

просмотры: 2

Post Comment