Арт-хаус Зарубежные фильмы

Отель «Миллион долларов» / The Million Dollar Hotel (2000) BDRip 720p от MediaClub | P, A

Информация о фильме
Название: Отель «Миллион долларов»
Оригинальное название: The Million Dollar Hotel
Год выпуска: 2000
Жанр: Триллер, драма, детектив, арт-хаус
Режиссер: Вим Вендерс
В ролях: Милла Йовович, Мэл Гибсон, Джереми Дэйвис, Джимми Смитс, Петер Стормаре, Аманда Пламмер, Тим Рот, Глория Стюарт, Том Бауэр, Донал Лог, Бад Корт, Джулиан Сэндс, Конрад Робертс, Харрис Юлин, Чарлэйн Вудард, Фредерик Ван Дер Вал, Эллен Клегхорн, Ричард Эдсон, Тито Ларрива, Боно

Описание: Побывавший на своем веку в немыслимых переделках, специальный агент ФБР, детектив Скиннер расследует самое загадочное дело в своей карьере: смерть сына известного медиа-магната. Так он оказывается в лос-анджелесском отеле «Миллион долларов», населенном наркоманами и ворами. Было ли это самоубийство или убийство? Ответ становится еще более сложным, когда один из постояльцев пытается увести подозрения от красавицы Элоизы. Теперь Скиннер должен отделить факты от вымыслов, чтобы найти виновного, кто бы он ни был…

Страна: Германия, США, Великобритания
Студия: Icon Entertainmnet International, Kintop Pictures, Road Movies Filmproduktion
Продолжительность: 02:01:58
Перевод: Профессиональный многоголосый, авторский одноголосый

Файл
Качество: BDRip 720p
Видео: MPEG-4 AVC, 4000 Кбит/с, 1280×544, 23.976 кадр/с
Аудио #1: Русский (AC3, 6 ch, 448 Кбит/с) / Профессиональный многоголосый
Аудио #2: Русский (DTS, 6 ch, 1509 Кбит/с) / Профессиональный многоголосый
Аудио #3: Русский (DTS, 6 ch, 1509 Кбит/с) / Авторский одноголосый (С. Рябов)
Аудио #4: Английский (DTS, 6 ch, 1509 Кбит/с)
Субтитры: Русские, английские

Семпл

Скриншоты

MI
Общее
Уникальный идентификатор : 241058527087411958731509767911156607557 (0xB55A2EFE3B1009CB9608C66F06ADEA45)
Полное имя : D:Mои раздачиThe.Million.Dollar.Hotel.2000.BDRip.(720p)-MediaClub.mkv
Формат : Matroska
Версия формата : Version 4 / Version 2
Размер файла : 7,65 Гбайт
Продолжительность : 2 ч. 1 м.
Общий поток : 8980 Кбит/сек
Название фильма : -=MediaClub-kaspr=-
Дата кодирования : UTC 2013-09-10 11:34:55
Программа кодирования : mkvmerge v6.3.0 ('You can't stop me!') built on Jul 19 2013 16:27:38
Библиотека кодирования : libebml v1.3.0 + libmatroska v1.4.1

Видео
Идентификатор : 1
Формат : AVC
Формат/Информация : Advanced Video Codec
Профиль формата : [email protected]
Параметр CABAC формата : Да
Параметр ReFrames формата : 8 кадров
Идентификатор кодека : V_MPEG4/ISO/AVC
Продолжительность : 2 ч. 1 м.
Битрейт : 4000 Кбит/сек
Ширина : 1280 пикселей
Высота : 544 пикселя
Соотношение сторон : 2,35:1
Режим частоты кадров : Постоянный
Частота кадров : 23,976 кадра/сек
Цветовое пространство : YUV
Субдискретизация насыщенности : 4:2:0
Битовая глубина : 8 бит
Тип развёртки : Прогрессивная
Бит/(Пиксели*Кадры) : 0.240
Размер потока : 3,26 Гбайт (43%)
Заголовок : -=MediaClub-kaspr=-
Библиотека кодирования : x264 core 130 r2273 b3065e6
Настройки программы : cabac=1 / ref=8 / deblock=1:-3:-3 / analyse=0x3:0x133 / me=umh / subme=11 / psy=1 / psy_rd=1.00:0.20 / mixed_ref=1 / me_range=48 / chroma_me=1 / trellis=2 / 8x8dct=1 / cqm=0 / deadzone=21,11 / fast_pskip=0 / chroma_qp_offset=-3 / threads=12 / lookahead_threads=3 / sliced_threads=0 / nr=0 / decimate=0 / interlaced=0 / bluray_compat=0 / constrained_intra=0 / bframes=10 / b_pyramid=2 / b_adapt=2 / b_bias=0 / direct=3 / weightb=1 / open_gop=0 / weightp=2 / keyint=240 / keyint_min=23 / scenecut=40 / intra_refresh=0 / rc=2pass / mbtree=0 / bitrate=4000 / ratetol=1.0 / qcomp=0.60 / qpmin=0 / qpmax=69 / qpstep=4 / cplxblur=20.0 / qblur=0.5 / ip_ratio=1.40 / pb_ratio=1.30 / aq=1:1.00
Default : Да
Forced : Да

Аудио #1
Идентификатор : 2
Формат : AC-3
Формат/Информация : Audio Coding 3
Расширение режима : CM (complete main)
Параметр Endianness формата : Big
Идентификатор кодека : A_AC3
Продолжительность : 2 ч. 1 м.
Вид битрейта : Постоянный
Битрейт : 448 Кбит/сек
Каналы : 6 каналов
Расположение каналов : Front: L C R, Side: L R, LFE
Частота : 48,0 КГц
Битовая глубина : 16 бит
Метод сжатия : С потерями
Размер потока : 391 Мбайт (5%)
Заголовок : ПМ-(AC3)
Язык : Russian
Default : Да
Forced : Да

Аудио #2
Идентификатор : 3
Формат : DTS
Формат/Информация : Digital Theater Systems
Режим : 16
Параметр Endianness формата : Big
Идентификатор кодека : A_DTS
Продолжительность : 2 ч. 1 м.
Вид битрейта : Постоянный
Битрейт : 1509 Кбит/сек
Каналы : 6 каналов
Расположение каналов : Front: L C R, Side: L R, LFE
Частота : 48,0 КГц
Битовая глубина : 16 бит
Метод сжатия : С потерями
Размер потока : 1,29 Гбайт (17%)
Заголовок : ПМ-(DTS)
Язык : Russian
Default : Нет
Forced : Да

Аудио #3
Идентификатор : 4
Формат : DTS
Формат/Информация : Digital Theater Systems
Режим : 16
Параметр Endianness формата : Big
Идентификатор кодека : A_DTS
Продолжительность : 2 ч. 1 м.
Вид битрейта : Постоянный
Битрейт : 1509 Кбит/сек
Каналы : 6 каналов
Расположение каналов : Front: L C R, Side: L R, LFE
Частота : 48,0 КГц
Битовая глубина : 16 бит
Метод сжатия : С потерями
Размер потока : 1,29 Гбайт (17%)
Заголовок : С. Рябов
Язык : Russian
Default : Нет
Forced : Нет

Аудио #4
Идентификатор : 5
Формат : DTS
Формат/Информация : Digital Theater Systems
Режим : 16
Параметр Endianness формата : Big
Идентификатор кодека : A_DTS
Продолжительность : 2 ч. 1 м.
Вид битрейта : Постоянный
Битрейт : 1509 Кбит/сек
Каналы : 6 каналов
Расположение каналов : Front: L C R, Side: L R, LFE
Частота : 48,0 КГц
Битовая глубина : 16 бит
Метод сжатия : С потерями
Размер потока : 1,29 Гбайт (17%)
Заголовок : Оригинал
Язык : English
Default : Нет
Forced : Нет

Текст #1
Идентификатор : 6
Формат : UTF-8
Идентификатор кодека : S_TEXT/UTF8
Идентификатор кодека/Информация : UTF-8 Plain Text
Язык : Russian
Default : Нет
Forced : Нет

Текст #2
Идентификатор : 7
Формат : UTF-8
Идентификатор кодека : S_TEXT/UTF8
Идентификатор кодека/Информация : UTF-8 Plain Text
Язык : English
Default : Нет
Forced : Нет

Меню
00:00:00.000 : en:Chapter 01
00:02:48.543 : en:Chapter 02
00:06:19.462 : en:Chapter 03
00:10:41.432 : en:Chapter 04
00:12:42.595 : en:Chapter 05
00:16:05.547 : en:Chapter 06
00:22:06.700 : en:Chapter 07
00:25:01.458 : en:Chapter 08
00:28:01.679 : en:Chapter 09
00:32:28.529 : en:Chapter 10
00:37:11.395 : en:Chapter 11
00:43:37.531 : en:Chapter 12
00:50:40.661 : en:Chapter 13
01:03:14.207 : en:Chapter 14
01:06:54.176 : en:Chapter 15
01:12:32.389 : en:Chapter 16
01:19:25.802 : en:Chapter 17
01:24:17.135 : en:Chapter 18
01:27:58.564 : en:Chapter 19
01:34:10.061 : en:Chapter 20
01:38:20.603 : en:Chapter 21
01:43:21.612 : en:Chapter 22
01:48:56.488 : en:Chapter 23
01:56:34.195 : en:Chapter 24

Релиз:


Скачать The.Million.Dollar.Hotel.2000.BDRip.(720p)-Medi.torrent

просмотры: 12

Post Comment