Боевик Зарубежные фильмы

Гангстер / Hoodlum (1997) BDRip 1080p от HDReactor | P, P2, A


Информация о фильме
Название: Гангстер
Оригинальное название: Hoodlum
Год выпуска: 1997
Жанр: Драма, криминал, боевик
Выпущено: США, United Artists Pictures
Режиссер: Билл Дьюк
В ролях: Лоуренс Фишборн, Тим Рот, Ванесса Уильямс, Энди Гарсиа, Сисели Тайсон, Чи МакБрайд, Кларенс Уильямс III, Ричард Брэдфорд, Уильям Этертон, Лоретта Дивайн, Куин Латифа, Майк Старр, Бо Старр, Пол Бенджамин, Джо Гузальдо, Эд О’Росс, Дж.В. Смит, Эдди Бо Смит мл., Джон Тоулс-Бей, Дэвид Дарлоу, Стив Пикеринг, Эллис Фостер, Билл Хендерсон, Хуан Рамирес, Тони Фицпатрик, Роберт Корнелиус, Таб Бэйкер, Дэниэл Брайант, Дон Джеймс, Пол Экштейн, Кристиан Пэйтон, Джеки Тейлор

О фильме: 30-е годы. Теневая преступность выплескивается на улицы Нью-Йорка, и смертельная вражда стравливат гангстера с гангстером. Бампи Джонсон, глава гарлемских рэкетиров, преисполнен гордости и чувства собственного превосходства. Когда дикий, необузданный Голландец Шульц совершает серию дерзких налетов на его территорию, Бампи понимает, что для победы над Голландцем необходимо принять его правила игры. По мере того, как свирепая, непримиримая война набирает обороты, все, включая личную жизнь Бампи, выходит из-под контроля. Помочь может лишь крайнее средство — привлечение на свою сторону самого страшного и могущественного гангстера в истории мафии — Лаки Лючано…

Продолжительность: 02:10:22
Перевод: Профессиональный многоголосый, профессиональный двухголосый, авторский
Субтитры: Английские

Файл
Качество: BDRip (1080p)
Видео: MPEG-4 AVC, 11183 Кбит/с, 1920×1042, 23.976 кадр/с
Аудио #1: AC3; Rus; 48000Hz; 2ch; 192kbps — Профессиональный двухголосый (Союз видео)
Аудио #2: AC3; Rus; 48000Hz; 2ch; 128kbps — Профессиональный многоголосый (Первый ТВЧ)
Аудио #3: AC3; Rus; 48000Hz; 6ch; 448kbps — Авторский — Юрий Живов
Аудио #4: AC3; Rus; 48000Hz; 6ch; 384kbps — Авторский — Дмитрий Штамп ([email protected]) — без цензуры
Аудио #5: AC3; Eng; 48000Hz; 6ch; 448kbps — оригинал

МедиаИнфо
Формат : Matroska
Версия формата : Version 2
Размер файла : 11,6 Гбайт
Продолжительность : 2 ч. 10 м.
Общий поток : 12,8 Мбит/сек
Название фильма : ~V ad~
Дата кодирования : UTC 2016-08-03 19:26:57
Программа кодирования : mkvmerge v6.5.0 ('Isn't she lovely') built on Oct 20 2013 12:50:05
Библиотека кодирования : libebml v1.3.0 + libmatroska v1.4.1
Обложка : Yes
Attachments : cover.jpg

Видео
Идентификатор : 1
Формат : AVC
Формат/Информация : Advanced Video Codec
Профиль формата : [email protected]
Параметр CABAC формата : Да
Параметр ReFrames формата : 4 кадра
Идентификатор кодека : V_MPEG4/ISO/AVC
Продолжительность : 2 ч. 10 м.
Битрейт : 11,2 Мбит/сек
Ширина : 1920 пикселей
Высота : 1042 пикселя
Соотношение сторон : 1,85:1
Режим частоты кадров : Постоянный
Частота кадров : 23,976 (24000/1001) кадра/сек
Цветовое пространство : YUV
Субдискретизация насыщенности : 4:2:0
Битовая глубина : 8 бит
Тип развёртки : Прогрессивная
Бит/(Пиксели*Кадры) : 0.233
Размер потока : 9,95 Гбайт (85%)
Заголовок : ~V~
Библиотека кодирования : x264 core 148 r2705 3f5ed56
Настройки программы : cabac=1 / ref=4 / deblock=1:-3:-3 / analyse=0x3:0x133 / me=umh / subme=11 / psy=1 / psy_rd=1.00:0.00 / mixed_ref=1 / me_range=32 / chroma_me=1 / trellis=2 / 8x8dct=1 / cqm=0 / deadzone=21,11 / fast_pskip=0 / chroma_qp_offset=-2 / threads=12 / lookahead_threads=1 / sliced_threads=0 / nr=0 / decimate=0 / interlaced=0 / bluray_compat=0 / constrained_intra=0 / bframes=10 / b_pyramid=2 / b_adapt=2 / b_bias=0 / direct=3 / weightb=1 / open_gop=0 / weightp=2 / keyint=240 / keyint_min=23 / scenecut=40 / intra_refresh=0 / rc=2pass / mbtree=0 / bitrate=11183 / ratetol=1.0 / qcomp=0.60 / qpmin=0 / qpmax=69 / qpstep=4 / cplxblur=20.0 / qblur=0.5 / ip_ratio=1.40 / pb_ratio=1.30 / aq=3:1.00
Язык : English
Default : Да
Forced : Нет

Аудио #1
Идентификатор : 2
Формат : AC-3
Формат/Информация : Audio Coding 3
Расширение режима : CM (complete main)
Параметр Endianness формата : Big
Идентификатор кодека : A_AC3
Продолжительность : 2 ч. 10 м.
Вид битрейта : Постоянный
Битрейт : 192 Кбит/сек
Каналы : 2 канала
Расположение каналов : Front: L R
Частота : 48,0 КГц
Частота кадров : 31,250 кадров/сек (1536 spf)
Метод сжатия : С потерями
Размер потока : 179 Мбайт (2%)
Заголовок : DVO [Союз видео]
Язык : Russian
Default : Нет
Forced : Нет

Аудио #2
Идентификатор : 3
Формат : AC-3
Формат/Информация : Audio Coding 3
Расширение режима : CM (complete main)
Параметр Endianness формата : Big
Идентификатор кодека : A_AC3
Продолжительность : 2 ч. 10 м.
Вид битрейта : Постоянный
Битрейт : 128 Кбит/сек
Каналы : 2 канала
Расположение каналов : Front: L R
Частота : 48,0 КГц
Частота кадров : 31,250 кадров/сек (1536 spf)
Метод сжатия : С потерями
Размер потока : 119 Мбайт (1%)
Заголовок : MVO [Первый ТВЧ]
Язык : Russian
Default : Да
Forced : Да

Аудио #3
Идентификатор : 4
Формат : AC-3
Формат/Информация : Audio Coding 3
Расширение режима : CM (complete main)
Параметр Endianness формата : Big
Идентификатор кодека : A_AC3
Продолжительность : 2 ч. 10 м.
Вид битрейта : Постоянный
Битрейт : 448 Кбит/сек
Каналы : 6 каналов
Расположение каналов : Front: L C R, Side: L R, LFE
Частота : 48,0 КГц
Частота кадров : 31,250 кадров/сек (1536 spf)
Метод сжатия : С потерями
Размер потока : 418 Мбайт (4%)
Заголовок : AVO [Ю.Живов]
Язык : Russian
Default : Нет
Forced : Нет

Аудио #4
Идентификатор : 5
Формат : AC-3
Формат/Информация : Audio Coding 3
Расширение режима : CM (complete main)
Параметр Endianness формата : Big
Идентификатор кодека : A_AC3
Продолжительность : 2 ч. 10 м.
Вид битрейта : Постоянный
Битрейт : 384 Кбит/сек
Каналы : 6 каналов
Расположение каналов : Front: L C R, Side: L R, LFE
Частота : 48,0 КГц
Частота кадров : 31,250 кадров/сек (1536 spf)
Метод сжатия : С потерями
Задержка видео : 967 мс.
Размер потока : 358 Мбайт (3%)
Заголовок : AVO [Д.Штамп "[email protected]"]
Язык : Russian
Default : Нет
Forced : Нет

Аудио #5
Идентификатор : 6
Формат : AC-3
Формат/Информация : Audio Coding 3
Расширение режима : CM (complete main)
Параметр Endianness формата : Big
Идентификатор кодека : A_AC3
Продолжительность : 2 ч. 10 м.
Вид битрейта : Постоянный
Битрейт : 448 Кбит/сек
Каналы : 6 каналов
Расположение каналов : Front: L C R, Side: L R, LFE
Частота : 48,0 КГц
Частота кадров : 31,250 кадров/сек (1536 spf)
Метод сжатия : С потерями
Размер потока : 418 Мбайт (4%)
Язык : English
Default : Нет
Forced : Нет

Текст #1
Идентификатор : 7
Формат : UTF-8
Идентификатор кодека : S_TEXT/UTF8
Идентификатор кодека/Информация : UTF-8 Plain Text
Заголовок : Full
Язык : English
Default : Нет
Forced : Нет

Текст #2
Идентификатор : 8
Формат : UTF-8
Идентификатор кодека : S_TEXT/UTF8
Идентификатор кодека/Информация : UTF-8 Plain Text
Заголовок : SDH
Язык : English
Default : Нет
Forced : Нет

Меню
00:00:00.000 : :001
00:00:10.927 : :002
00:12:57.693 : :003
00:29:07.871 : :004
00:45:13.460 : :005
01:02:22.655 : :006
01:17:52.793 : :007
01:34:38.005 : :008
01:51:58.253 : :009
02:04:14.275 : :010
х264
x264 [info]: frame I:1515 Avg QP:15.23 size:186336
x264 [info]: frame P:34233 Avg QP:17.59 size: 95242
x264 [info]: frame B:151813 Avg QP:19.20 size: 48678
Скриншоты


Сэмпл
Релиз от:


Скачать Hoodlum.1997.BDRip.1080p.HDR.mkv.torrent

просмотры: 9

Post Comment